Loading...
Error

Робо (Сарик Андреасян) [2019 г., семейный, фантастика, драма, BD-Remux]

Статистика раздачи
Размер:  24,35 GB   |    Зарегистрирован:  3 месяца 6 дней   |    Скачан:  2 раза

Полного источника не было: 2 месяца 12 дней

Сидов:  0  |  0 KB/s  ]   Личеров:  0  |  0 KB/s  ]

* - сиды/пиры с внешних источников

   
 
Автор Сообщение

makkol Пол:Муж

02-Май-2020 15:28

Робо


Год выпуска: 2019
Жанр: семейный, фантастика, драма
Производство: Россия [Кинокомпания «Большое кино»]
Режиссер: Сарик Андреасян
В ролях: Даниил Муравьёв-Изотов, Владимир Вдовиченков, Мария Миронова (II), Константин Лавроненко, Грант Тохатян, Кристина Орса, Елизавета Моряк
Сюжет фильма:
12-летний Митя Привалов мечтает рисовать комиксы о супергероях. Но родители мальчика, инженеры-робототехники, хотят, чтобы он пошел по их стопам. Понимание и поддержку Митя находит там, где не ждал: у созданного родителями робота-спасателя А-112 или просто Робо. Их ждут невероятные приключения, в ходе которых Митя научит нового друга верить в себя и свои мечты, а Робо станет для мальчика примером мужества и ответственности.

  • Мировая премьера: 1 ноября 2019
  • Российская премьера: 31 октября 2019


Качество видео: BD-Remux

Лицензия Blu-Ray GER

Продолжительность: 01:28:02
Формат: MKV
Видео: MPEG-4 AVC, 1920x1080 (16:9), 24.000 fps, 35264 kbps
Аудио #1: русский, оригинал, DTS-HD MA 5.1, 48 kHz, 3896 kbps
Аудио #2: русский, оригинал, AC3 5.1, 48 kHz, 640 kbps
Субтитры: русские форсированные вшитые отключаемые

Код:

General
Unique ID                   : 231455120569559618446963192908730668467 (0xAE20A27EE37F336FB26D1DC82C8915B3)
Complete name               : Robo.2019.BDREMUX.1080p.mkv
Format                      : Matroska
Format version              : Version 4
File size                   : 24.3 GiB
Duration                    : 1 h 28 min
Overall bit rate mode       : Variable
Overall bit rate            : 39.6 Mb/s
Encoded date                : UTC 2020-05-02 12:55:08
Writing application         : mkvmerge v40.0.0 ('Old Town Road + Pony') 64-bit
Writing library             : libebml v1.3.9 + libmatroska v1.5.2

Video
ID                          : 1
Format                      : AVC
Format/Info                 : Advanced Video Codec
Format profile              : High@L4.1
Format settings             : CABAC / 4 Ref Frames
Format settings, CABAC      : Yes
Format settings, Reference  : 4 frames
Codec ID                    : V_MPEG4/ISO/AVC
Duration                    : 1 h 28 min
Bit rate mode               : Variable
Bit rate                    : 35.0 Mb/s
Maximum bit rate            : 37.0 Mb/s
Width                       : 1 920 pixels
Height                      : 1 080 pixels
Display aspect ratio        : 16:9
Frame rate mode             : Constant
Frame rate                  : 24.000 FPS
Color space                 : YUV
Chroma subsampling          : 4:2:0
Bit depth                   : 8 bits
Scan type                   : Progressive
Bits/(Pixel*Frame)          : 0.704
Stream size                 : 21.6 GiB (89%)
Language                    : German
Default                     : Yes
Forced                      : No

Audio #1
ID                          : 2
Format                      : DTS XLL
Format/Info                 : Digital Theater Systems
Commercial name             : DTS-HD Master Audio
Codec ID                    : A_DTS
Duration                    : 1 h 28 min
Bit rate mode               : Variable
Bit rate                    : 3 896 kb/s
Channel(s)                  : 6 channels
Channel layout              : C L R Ls Rs LFE
Sampling rate               : 48.0 kHz
Frame rate                  : 93.750 FPS (512 SPF)
Bit depth                   : 24 bits
Compression mode            : Lossless
Stream size                 : 2.40 GiB (10%)
Language                    : Russian
Default                     : Yes
Forced                      : Yes

Audio #2
ID                          : 3
Format                      : AC-3
Format/Info                 : Audio Coding 3
Commercial name             : Dolby Digital
Codec ID                    : A_AC3
Duration                    : 1 h 28 min
Bit rate mode               : Constant
Bit rate                    : 640 kb/s
Channel(s)                  : 6 channels
Channel layout              : L R C LFE Ls Rs
Sampling rate               : 48.0 kHz
Frame rate                  : 31.250 FPS (1536 SPF)
Compression mode            : Lossy
Stream size                 : 403 MiB (2%)
Language                    : Russian
Service kind                : Complete Main
Default                     : No
Forced                      : No

Text
ID                          : 4
Format                      : UTF-8
Codec ID                    : S_TEXT/UTF8
Codec ID/Info               : UTF-8 Plain Text
Duration                    : 6 s 640 ms
Bit rate                    : 49 b/s
Count of elements           : 1
Stream size                 : 41.0 Bytes (0%)
Title                       : Forced
Language                    : Russian
Default                     : Yes
Forced                      : Yes

Menu
00:00:00.000                : de:
00:04:51.125                : de:
00:09:18.792                : de:
00:14:18.333                : de:
00:20:52.417                : de:
00:25:05.708                : de:
00:31:12.167                : de:
00:37:11.917                : de:
00:44:12.875                : de:
00:51:43.958                : de:
00:57:50.542                : de:
01:04:02.250                : de:
01:09:41.833                : de:
01:13:22.500                : de:
01:16:30.708                : de:
01:21:50.542                : de:

Этот торрент недоступен для скачивания без регистрации, однако доступен по публичной magnet-ссылке (источники с публичных трекеров). Перед использованием ссылки прочтите, пожалуйста Пользовательское соглашение, а также как можно дольше оставайтесь на раздаче! Для того, чтобы скачать сам торрент-файл (который видит больше источников), а также для того, чтобы поблагодарить релизера, вам необходимо зарегистрироваться. Если регистрироваться лень - вы можете также попробовать скачать релиз по нашим партнерским ссылкам ниже. Кроме того, зарегистрированным пользователям не показывается всплывающая реклама при скачивании.

[underver.se].t167137.torrent
Трекер: Зарегистрирован   [ 02.05.2020 15:28 ]  

Статус: проверено (by makkol at 02.05.2020 15:28)
Поблагодарили: пока никто не поблагодарил...
Тип торрента: публичный - доступные источники с открытых трекеров: 
Размер: 24,35 GB (занимает 5,56 DVDR, для записи нужно 6 болванок DVDR/RW)
 
 
Похожие темы
Форум Тема Автор Торрент Отв. Посл. сооб.
Наше кино [DVDRip, Low-Res HDRip, и т.д.] Робо (Сарик Андреасян) [2019 г., семейный, фантастика, драма, BDRip] makkol
38 | 1

0 | 388

10

02.05.2020 15:20

Наше кино [DVDRip, Low-Res HDRip, и т.д.] Робо (Сарик Андреасян) [2019 г., семейный, фантастика, драма, BDRip-AVC] makkol
2 | 0

0 | 533

7

02.05.2020 20:52

Наше кино [HDDVDRip / BDRip / WEB-DL / HDTV 1080/720р] Робо (Сарик Андреасян) [2019 г., семейный, фантастика, драма, WEB-DL 720p] Original (iTunes) makkol
11 | 0

0 | 384

14

12.12.2019 10:13

Наше кино [HDDVDRip / BDRip / WEB-DL / HDTV 1080/720р] Робо (Сарик Андреасян) [2019 г., семейный, фантастика, драма, WEB-DL 1080p] Original (iTunes) makkol
54 | 0

0 | 799

49

12.12.2019 10:18


Яндекс.Метрика powered by Sphinx


В Н И М А Н И Е
Сайт не распространяет и не хранит электронные версии произведений, а лишь бесплатно и без коммерческой выгоды (не требуя взамен платы,
SMS и т.д.) предоставляет доступ к создаваемому пользователями каталогу ссылок на торрент-файлы, которые содержат только списки хеш-сумм.
Убедительная просьба с жалобами обращаться напрямую к пользователю, разместившему торрент файл.

Вверх