Loading...
Error

Пеплопад / Гора Пэкту / Baekdusan / Ashfall (Хэ Чжун Ли, Бён Су Ким) [2019 г., боевик, катастрофа, BDRip 1080p] DVO (Колобок) + Original

Статистика раздачи
Размер:  10,58 GB   |    Зарегистрирован:  2 дня 10 часов   |    Скачан:  2 раза
Сидов:  1  |  0 KB/s  ]   Личеров:  0  |  0 KB/s  ]

* - сиды/пиры с внешних источников

   
 
Автор Сообщение

makkol Пол:Муж

22-Май-2020 22:48

Пеплопад / Гора Пэкту / Baekdusan / Ashfall


Год выпуска: 2019
Жанр: боевик, катастрофа
Производство: Корея Южная [Dexter Studios]
Режиссер: Хэ Чжун Ли, Бён Су Ким
В ролях: Бён Хон Ли, Чон У Ха, Дон Сок Ма, Хе Чжин Чон (I), Су Чжи Пэ, Сан Вон Ли, Ча Ён Ок, Син Чхоль Кан, Су Хён Хан, Кён Ён Ли, Си А Ким, Хан Чхоль Чо, До Ён Чон
Сюжет фильма:
Вулкан горы Пэкту, находящейся на территории Северной Кореи, начинает извергаться, происходят сильные землетрясения, что в самом ближайшем будущем грозит разрушением половины Корейского полуострова. Правительство Южной Кореи решает реализовать безумный план одного учёного: доставить в шахту горы Пэкту ядерную бомбу, взорвать её и тем самым уменьшить давление магмы. А поскольку на Юге нет ядерной программы, ответственное задание поручается сапёрной команде — вызволить из застенков северного агента и с ним пробраться на секретную базу коммунистического соседа.

  • Мировая премьера: 19 декабря 2019


Качество видео: BDRip 1080p

Продолжительность: 02:08:12
Формат: MKV
Видео: MPEG-4 AVC, 1920x804 (2.40:1), 23.976 fps, 10.1 Mbps
Аудио #1: русский, любительский двухголосый закадровый (Колобок), AC3 5.1, 48 kHz, 448 kbps
Аудио #2: корейский, оригинал, AC3 5.1, 48 kHz, 640 kbps
Аудио #3: китайский, AC3 5.1, 48 kHz, 640 kbps
Субтитры: английские вшитые отключаемые

Код:

Источник: Ashfall.2019.KOREAN.1080p.BluRay.REMUX.AVC.DTS-HD.MA.TrueHD.5.1-FGT
General
Unique ID : 178102516841912780984224612189128579399 (0x85FD4C0A8761579A9D5776EF011B5947)
Complete name : Ashfall.2019.BDRip.1080p.mkv
Format : Matroska
Format version : Version 4
File size : 10.6 GiB
Duration : 2 h 8 min
Overall bit rate : 11.8 Mb/s
Encoded date : UTC 2020-05-22 09:43:48
Writing application : mkvmerge v7.1.0 ('Good Love') 64bit built on Jul 27 2014 13:06:55
Writing library : libebml v1.3.0 + libmatroska v1.4.1

Video
ID : 1
Format : AVC
Format/Info : Advanced Video Codec
Format profile : High@L4.1
Format settings : CABAC / 5 Ref Frames
Format settings, CABAC : Yes
Format settings, Reference fra : 5 frames
Codec ID : V_MPEG4/ISO/AVC
Duration : 2 h 8 min
Bit rate : 10.1 Mb/s
Width : 1 920 pixels
Height : 804 pixels
Display aspect ratio : 2.40:1
Frame rate mode : Constant
Frame rate : 23.976 (24000/1001) FPS
Color space : YUV
Chroma subsampling : 4:2:0
Bit depth : 8 bits
Scan type : Progressive
Bits/(Pixel*Frame) : 0.273
Stream size : 9.03 GiB (85%)
Writing library : x264 core 157 r2958 57baac4
Encoding settings : cabac=1 / ref=5 / deblock=1:-3:-3 / analyse=0x3:0x113 / me=umh / subme=11 / psy=1 / psy_rd=1.00:0.00 / mixed_ref=1 / me_range=48 / chroma_me=1 / trellis=2 / 8x8dct=1 / cqm=0 / deadzone=21,11 / fast_pskip=1 / chroma_qp_offset=-2 / threads=18 / lookahead_threads=4 / sliced_threads=0 / nr=0 / decimate=1 / interlaced=0 / bluray_compat=0 / constrained_intra=0 / bframes=10 / b_pyramid=2 / b_adapt=2 / b_bias=0 / direct=3 / weightb=1 / open_gop=0 / weightp=2 / keyint=240 / keyint_min=24 / scenecut=40 / intra_refresh=0 / rc_lookahead=60 / rc=2pass / mbtree=1 / bitrate=10100 / ratetol=1.0 / qcomp=0.60 / qpmin=0 / qpmax=69 / qpstep=4 / cplxblur=20.0 / qblur=0.5 / vbv_maxrate=50000 / vbv_bufsize=60500 / nal_hrd=none / filler=0 / ip_ratio=1.40 / aq=1:1.00
Language : Korean
Default : Yes
Forced : No
Color range : Limited
Color primaries : BT.709
Transfer characteristics : BT.709
Matrix coefficients : BT.709

Audio #1
ID : 2
Format : AC-3
Format/Info : Audio Coding 3
Commercial name : Dolby Digital
Codec ID : A_AC3
Duration : 2 h 8 min
Bit rate mode : Constant
Bit rate : 448 kb/s
Channel(s) : 6 channels
Channel layout : L R C LFE Ls Rs
Sampling rate : 48.0 kHz
Frame rate : 31.250 FPS (1536 SPF)
Compression mode : Lossy
Stream size : 411 MiB (4%)
Title : DVO | Колобок
Language : Russian
Service kind : Complete Main
Default : Yes
Forced : No

Audio #2
ID : 3
Format : AC-3
Format/Info : Audio Coding 3
Commercial name : Dolby Digital
Codec ID : A_AC3
Duration : 2 h 8 min
Bit rate mode : Constant
Bit rate : 640 kb/s
Channel(s) : 6 channels
Channel layout : L R C LFE Ls Rs
Sampling rate : 48.0 kHz
Frame rate : 31.250 FPS (1536 SPF)
Compression mode : Lossy
Stream size : 587 MiB (5%)
Language : Korean
Service kind : Complete Main
Default : No
Forced : No

Audio #3
ID : 4
Format : AC-3
Format/Info : Audio Coding 3
Commercial name : Dolby Digital
Codec ID : A_AC3
Duration : 2 h 8 min
Bit rate mode : Constant
Bit rate : 640 kb/s
Channel(s) : 6 channels
Channel layout : L R C LFE Ls Rs
Sampling rate : 48.0 kHz
Frame rate : 31.250 FPS (1536 SPF)
Compression mode : Lossy
Stream size : 587 MiB (5%)
Language : Chinese
Service kind : Complete Main
Default : No
Forced : No

Text
ID : 5
Format : UTF-8
Codec ID : S_TEXT/UTF8
Codec ID/Info : UTF-8 Plain Text
Duration : 2 h 3 min
Bit rate : 45 b/s
Count of elements : 1478
Stream size : 41.4 KiB (0%)
Language : English
Default : No
Forced : No

Menu
00:00:00.000 : :Глава 1
00:08:41.437 : :Глава 2
00:20:37.110 : :Глава 3
00:32:47.465 : :Глава 4
00:43:46.081 : :Глава 5
00:50:37.367 : :Глава 6
01:04:59.353 : :Глава 7
01:14:34.344 : :Глава 8
01:26:07.662 : :Глава 9
01:35:08.828 : :Глава 10
01:48:06.980 : :Глава 11
01:56:38.700 : :Глава 12
02:08:11.517 : :Глава 13

Этот торрент недоступен для скачивания без регистрации, однако доступен по публичной magnet-ссылке (источники с публичных трекеров). Перед использованием ссылки прочтите, пожалуйста Пользовательское соглашение, а также как можно дольше оставайтесь на раздаче! Для того, чтобы скачать сам торрент-файл (который видит больше источников), а также для того, чтобы поблагодарить релизера, вам необходимо зарегистрироваться. Если регистрироваться лень - вы можете также попробовать скачать релиз по нашим партнерским ссылкам ниже. Кроме того, зарегистрированным пользователям не показывается всплывающая реклама при скачивании.

[underver.se].t168904.torrent
Трекер: Зарегистрирован   [ 22.05.2020 22:48 ]  

Статус: проверено (by makkol at 22.05.2020 22:48)
Поблагодарили: 1 человек
Тип торрента: публичный - доступные источники с открытых трекеров: 
Размер: 10,58 GB (занимает 2,42 DVDR, для записи нужно 3 болванки DVDR/RW)
 
 
Похожие темы
Форум Тема Автор Торрент Отв. Посл. сооб.
T Зарубежное кино [DVDRip, Low-Res HDRip, и т.д.] Пеплопад / Baekdusan (Хэ Чжун Ли, Бён Су Ким) [2019 г., боевик, WEB-DLRip] DVO (Колобок) makkol
18 | 0

0 | 319

13

30.01.2020 10:09

T Зарубежное кино [DVDRip, Low-Res HDRip, и т.д.] Пеплопад / Baekdusan (Хэ Чжун Ли, Бён Су Ким) [2019 г., боевик, WEB-DLRip] DVO (Колобок) makkol
1 | 1

0 | 316

4

30.01.2020 10:13

Зарубежное кино [DVDRip, Low-Res HDRip, и т.д.] Пеплопад / Гора Пэкту / Baekdusan / Ashfall (Хэ Чжун Ли, Бён Су Ким) [2019 г., боевик, катастрофа, BDRip] AVO (Дольский) makkol
2 | 0

0 | 422

6

22.05.2020 22:40

T Зарубежное кино [HDDVDRip / BDRip / WEB-DL / HDTV 1080/720р] Пеплопад / Baekdusan (Хэ Чжун Ли, Бён Су Ким) [2019 г., боевик, WEB-DL 720p] DVO (Колобок) makkol
10 | 0

0 | 410

11

30.01.2020 10:17

Зарубежное кино [HDDVDRip / BDRip / WEB-DL / HDTV 1080/720р] Пеплопад / Гора Пэкту / Baekdusan / Ashfall (Хэ Чжун Ли, Бён Су Ким) [2019 г., боевик, катастрофа, BDRip 1080p] MVO (HDRezka Studio) + AVO (Дольский) + Original makkol
155 | 26

0 | 256

5

23.05.2020 10:13


Яндекс.Метрика powered by Sphinx


В Н И М А Н И Е
Сайт не распространяет и не хранит электронные версии произведений, а лишь бесплатно и без коммерческой выгоды (не требуя взамен платы,
SMS и т.д.) предоставляет доступ к создаваемому пользователями каталогу ссылок на торрент-файлы, которые содержат только списки хеш-сумм.
Убедительная просьба с жалобами обращаться напрямую к пользователю, разместившему торрент файл.

Вверх