Loading...
Error

Битва (Анар Аббасов) [2019, Драма, Blu-Ray 1080p] [GER Transfer] | Лицензия + Sub (Ger)

Статистика раздачи
Размер:  28,97 GB   |    Зарегистрирован:  1 месяц 4 дня   |    Скачан:  0 раз

Полного источника не было: Никогда

Сидов:  0  |  0 KB/s  ]   Личеров:  0  |  0 KB/s  ]

* - сиды/пиры с внешних источников

   
 
Автор Сообщение

Konin Пол:Муж

11-Июл-2020 05:35

Битва

Год выпуска: 2019
Страна: Россия
Студия: ТПО «Рок»
Жанр: Драма
Продолжительность: 01:25:13
Перевод: Не требуется | Лицензия Blu-Ray GER
Режиссер:
Анар Аббасов
В ролях:
Риналь Мухаметов, Анна Исаева, Екатерина Кукуй, Илья Антоненко, Игорь Миркурбанов, Виталий Коваленко, Анфиса Семина, Алла Еминцева, Артем Карпов, Дмитрий Хасис
О фильме:
Стрит дансер Антон делает стремительную карьеру - его команда побеждает на всех баттлах, он признанный хореограф и все его будущее связано с танцем. Однако несчастный случай рушит все планы - Антон лишается слуха, а с ним и всех надежд. Оказавшись в непривычном мире тишины, Антон постепенно понимает, что это не конец. Страсть к танцу, воля к победе и любовь к жизни подсказывают ему новый путь к заветной мечте. И его главная битва еще впереди.

Качество: Blu-Ray 1080p
Формат: BDMV
Видео: MPEG-4 AVC, 34628 Кбит/с, 1920x1080
Аудио #01: DTS-HD MA, 6 ch, 3974 Кбит/с | Лицензия | RUS
Аудио #02: DTS-HD MA, 6 ch, 4028 Кбит/с | GER
Субтитры: Немецкие
Disc Title: Feel That Beat
Disc Label: Feel.the.Beat.2020.GERMAN.DUAL.COMPLETE.BLURAY-UNiVERSUM
Disc Size: 31,101,623,270 bytes
Protection: AACS
BDInfo: 0.7.5.5
Notes:
BDINFO HOME:
Cinema Squid (old)
http://www.cinemasquid.com/blu-ray/tools/bdinfo
UniqProject GitHub (new)
https://github.com/UniqProject/BDInfo
INCLUDES FORUMS REPORT FOR:
AVS Forum Blu-ray Audio and Video Specifications Thread
http://www.avsforum.com/avs-vb/showthread.php?t=1155731
********************
PLAYLIST: 00004.MPLS
********************

Код:

Total   Video                                             
Title                                                           Codec   Length  Movie Size      Disc Size       Bitrate Bitrate Main Audio Track                          Secondary Audio Track
-----                                                           ------  ------- --------------  --------------  ------- ------- ------------------                        ---------------------
00004.MPLS                                                      AVC     1:25:13 28,814,075,904  31,101,623,270  45.08   34.63   DTS-HD Master 5.1 4028Kbps (48kHz/24-bit)

Код:

DISC INFO:
Disc Title:     Feel That Beat
Disc Label:     Feel.the.Beat.2020.GERMAN.DUAL.COMPLETE.BLURAY-UNiVERSUM
Disc Size:      31,101,623,270 bytes
Protection:     AACS
BDInfo:         0.7.5.5
PLAYLIST REPORT:
Name:                   00004.MPLS
Length:                 1:25:13.833 (h:m:s.ms)
Size:                   28,814,075,904 bytes
Total Bitrate:          45.08 Mbps
VIDEO:
Codec                   Bitrate             Deion     
-----                   -------             -----------     
MPEG-4 AVC Video        34628 kbps          1080p / 24 fps / 16:9 / High Profile 4.1
AUDIO:
Codec                           Language        Bitrate         Deion     
-----                           --------        -------         -----------     
DTS-HD Master Audio             German          4028 kbps       5.1 / 48 kHz /  4028 kbps / 24-bit (DTS Core: 5.1 / 48 kHz /  1509 kbps / 24-bit)
DTS-HD Master Audio             Russian         3974 kbps       5.1 / 48 kHz /  3974 kbps / 24-bit (DTS Core: 5.1 / 48 kHz /  1509 kbps / 24-bit)
SUBTITLES:
Codec                           Language        Bitrate         Deion     
-----                           --------        -------         -----------     
Presentation Graphics           German          0.866 kbps                     
Presentation Graphics           German          20.421 kbps                     
FILES:
Name            Time In         Length          Size            Total Bitrate   
----            -------         ------          ----            -------------   
00004.M2TS      0:00:00.000     1:25:13.833     28,814,075,904  45,076         
CHAPTERS:
Number          Time In         Length          Avg Video Rate  Max 1-Sec Rate  Max 1-Sec Time  Max 5-Sec Rate  Max 5-Sec Time  Max 10Sec Rate  Max 10Sec Time  Avg Frame Size  Max Frame Size  Max Frame Time 
------          -------         ------          --------------  --------------  --------------  --------------  --------------  --------------  --------------  --------------  --------------  -------------- 
1               0:00:00.000     1:25:13.833     34,628 kbps     43,020 kbps     00:52:29.291    37,367 kbps     00:39:58.666    36,646 kbps     00:39:53.625    180,352 bytes   593,946 bytes   00:39:09.708   
STREAM DIAGNOSTICS:
File            PID             Type            Codec           Language                Seconds                 Bitrate                 Bytes           Packets         
----            ---             ----            -----           --------                --------------          --------------          -------------   -----           
00004.M2TS      4113 (0x1011)   0x1B            AVC                                     5113.667                34,629                  22,134,928,656  120,372,056     
00004.M2TS      4352 (0x1100)   0x86            DTS-HD MA       deu (German)            5113.667                4,028                   2,574,578,456   14,789,706     
00004.M2TS      4353 (0x1101)   0x86            DTS-HD MA       rus (Russian)           5113.667                3,975                   2,540,603,936   14,605,783     
00004.M2TS      4608 (0x1200)   0x90            PGS             deu (German)            5113.667                1                       553,733         3,185           
00004.M2TS      4609 (0x1201)   0x90            PGS             deu (German)            5113.667                20                      13,053,817      75,311         
QUICK SUMMARY:
Disc Title: Feel That Beat
Disc Label: Feel.the.Beat.2020.GERMAN.DUAL.COMPLETE.BLURAY-UNiVERSUM
Disc Size: 31,101,623,270 bytes
Protection: AACS
Playlist: 00004.MPLS
Size: 28,814,075,904 bytes
Length: 1:25:13.833
Total Bitrate: 45.08 Mbps
Video: MPEG-4 AVC Video / 34628 kbps / 1080p / 24 fps / 16:9 / High Profile 4.1
Audio: German / DTS-HD Master Audio / 5.1 / 48 kHz / 4028 kbps / 24-bit (DTS Core: 5.1 / 48 kHz / 1509 kbps / 24-bit)
Audio: Russian / DTS-HD Master Audio / 5.1 / 48 kHz / 3974 kbps / 24-bit (DTS Core: 5.1 / 48 kHz / 1509 kbps / 24-bit)
Subtitle: German / 0.866 kbps
Subtitle: German / 20.421 kbps
********************
PLAYLIST: 01101.MPLS
********************

Код:

Total   Video                                             
Title                                                           Codec   Length  Movie Size      Disc Size       Bitrate Bitrate Main Audio Track                          Secondary Audio Track
-----                                                           ------  ------- --------------  --------------  ------- ------- ------------------                        ---------------------
01101.MPLS                                                      AVC     1:25:13 28,814,075,904  31,101,623,270  45.08   34.63   DTS-HD Master 5.1 4028Kbps (48kHz/24-bit)

Код:

DISC INFO:
Disc Title:     Feel That Beat
Disc Label:     Feel.the.Beat.2020.GERMAN.DUAL.COMPLETE.BLURAY-UNiVERSUM
Disc Size:      31,101,623,270 bytes
Protection:     AACS
BDInfo:         0.7.5.5
PLAYLIST REPORT:
Name:                   01101.MPLS
Length:                 1:25:13.833 (h:m:s.ms)
Size:                   28,814,075,904 bytes
Total Bitrate:          45.08 Mbps
VIDEO:
Codec                   Bitrate             Deion     
-----                   -------             -----------     
MPEG-4 AVC Video        34628 kbps          1080p / 24 fps / 16:9 / High Profile 4.1
AUDIO:
Codec                           Language        Bitrate         Deion     
-----                           --------        -------         -----------     
DTS-HD Master Audio             German          4028 kbps       5.1 / 48 kHz /  4028 kbps / 24-bit (DTS Core: 5.1 / 48 kHz /  1509 kbps / 24-bit)
DTS-HD Master Audio             Russian         3974 kbps       5.1 / 48 kHz /  3974 kbps / 24-bit (DTS Core: 5.1 / 48 kHz /  1509 kbps / 24-bit)
SUBTITLES:
Codec                           Language        Bitrate         Deion     
-----                           --------        -------         -----------     
Presentation Graphics           German          0.866 kbps                     
Presentation Graphics           German          20.421 kbps                     
FILES:
Name            Time In         Length          Size            Total Bitrate   
----            -------         ------          ----            -------------   
00004.M2TS      0:00:00.000     1:25:13.833     28,814,075,904  45,076         
CHAPTERS:
Number          Time In         Length          Avg Video Rate  Max 1-Sec Rate  Max 1-Sec Time  Max 5-Sec Rate  Max 5-Sec Time  Max 10Sec Rate  Max 10Sec Time  Avg Frame Size  Max Frame Size  Max Frame Time 
------          -------         ------          --------------  --------------  --------------  --------------  --------------  --------------  --------------  --------------  --------------  -------------- 
1               0:00:00.000     0:02:13.500     30,222 kbps     38,701 kbps     00:00:36.416    36,043 kbps     00:01:44.958    35,915 kbps     00:01:39.833    157,358 bytes   295,883 bytes   00:01:46.666   
2               0:02:13.500     0:06:08.416     35,699 kbps     39,022 kbps     00:05:06.666    36,544 kbps     00:04:26.625    36,093 kbps     00:04:28.124    185,931 bytes   302,017 bytes   00:04:30.250   
3               0:08:21.916     0:04:00.083     35,650 kbps     40,609 kbps     00:10:54.291    36,735 kbps     00:12:04.875    36,234 kbps     00:11:40.500    185,678 bytes   361,116 bytes   00:11:50.250   
4               0:12:22.000     0:03:58.708     35,706 kbps     38,326 kbps     00:14:50.250    36,178 kbps     00:15:54.500    35,932 kbps     00:15:09.625    185,969 bytes   451,560 bytes   00:16:00.458   
5               0:16:20.708     0:04:41.458     35,702 kbps     38,436 kbps     00:16:22.083    36,226 kbps     00:19:30.083    35,940 kbps     00:19:25.124    185,947 bytes   339,080 bytes   00:16:26.625   
6               0:21:02.166     0:05:04.000     35,706 kbps     38,838 kbps     00:24:02.791    36,364 kbps     00:23:58.833    36,012 kbps     00:24:05.291    185,968 bytes   485,074 bytes   00:22:16.416   
7               0:26:06.166     0:04:53.791     35,710 kbps     38,643 kbps     00:30:13.708    36,337 kbps     00:30:10.458    35,987 kbps     00:30:05.416    185,988 bytes   344,330 bytes   00:27:02.291   
8               0:30:59.958     0:04:59.875     35,724 kbps     38,265 kbps     00:31:05.166    36,190 kbps     00:34:41.833    36,004 kbps     00:35:10.125    186,063 bytes   338,244 bytes   00:35:41.416   
9               0:35:59.833     0:04:23.166     35,682 kbps     42,674 kbps     00:40:02.625    37,367 kbps     00:39:58.666    36,646 kbps     00:39:53.625    185,845 bytes   593,946 bytes   00:39:09.708   
10              0:40:23.000     0:06:26.708     35,707 kbps     38,317 kbps     00:45:26.333    36,330 kbps     00:43:32.000    36,046 kbps     00:43:27.125    185,975 bytes   317,542 bytes   00:46:34.666   
11              0:46:49.708     0:05:04.916     35,706 kbps     40,382 kbps     00:49:06.916    36,655 kbps     00:49:02.958    36,157 kbps     00:48:58.000    185,969 bytes   371,801 bytes   00:49:07.916   
12              0:51:54.625     0:07:00.041     35,706 kbps     43,020 kbps     00:52:29.291    37,139 kbps     00:52:25.333    36,448 kbps     00:52:20.291    185,969 bytes   368,662 bytes   00:56:22.458   
13              0:58:54.666     0:08:45.416     35,709 kbps     40,582 kbps     01:02:59.416    36,659 kbps     01:02:55.458    36,127 kbps     01:02:50.458    185,986 bytes   343,376 bytes   01:07:22.750   
14              1:07:40.083     0:05:57.999     35,688 kbps     40,193 kbps     01:10:45.249    36,571 kbps     01:10:41.291    36,127 kbps     01:10:36.249    185,873 bytes   407,596 bytes   01:10:48.791   
15              1:13:38.083     0:04:43.375     35,667 kbps     38,849 kbps     01:17:52.041    36,251 kbps     01:17:03.291    36,038 kbps     01:17:43.041    185,765 bytes   402,815 bytes   01:17:09.458   
16              1:18:21.458     0:06:52.375     24,186 kbps     41,907 kbps     01:19:11.791    37,313 kbps     01:19:07.916    36,506 kbps     01:19:02.791    125,981 bytes   422,258 bytes   01:20:00.416   
STREAM DIAGNOSTICS:
File            PID             Type            Codec           Language                Seconds                 Bitrate                 Bytes           Packets         
----            ---             ----            -----           --------                --------------          --------------          -------------   -----           
00004.M2TS      4113 (0x1011)   0x1B            AVC                                     5113.667                34,629                  22,134,928,656  120,372,056     
00004.M2TS      4352 (0x1100)   0x86            DTS-HD MA       deu (German)            5113.667                4,028                   2,574,578,456   14,789,706     
00004.M2TS      4353 (0x1101)   0x86            DTS-HD MA       rus (Russian)           5113.667                3,975                   2,540,603,936   14,605,783     
00004.M2TS      4608 (0x1200)   0x90            PGS             deu (German)            5113.667                1                       553,733         3,185           
00004.M2TS      4609 (0x1201)   0x90            PGS             deu (German)            5113.667                20                      13,053,817      75,311         
QUICK SUMMARY:
Disc Title: Feel That Beat
Disc Label: Feel.the.Beat.2020.GERMAN.DUAL.COMPLETE.BLURAY-UNiVERSUM
Disc Size: 31,101,623,270 bytes
Protection: AACS
Playlist: 01101.MPLS
Size: 28,814,075,904 bytes
Length: 1:25:13.833
Total Bitrate: 45.08 Mbps
Video: MPEG-4 AVC Video / 34628 kbps / 1080p / 24 fps / 16:9 / High Profile 4.1
Audio: German / DTS-HD Master Audio / 5.1 / 48 kHz / 4028 kbps / 24-bit (DTS Core: 5.1 / 48 kHz / 1509 kbps / 24-bit)
Audio: Russian / DTS-HD Master Audio / 5.1 / 48 kHz / 3974 kbps / 24-bit (DTS Core: 5.1 / 48 kHz / 1509 kbps / 24-bit)
Subtitle: German / 0.866 kbps
Subtitle: German / 20.421 kbps
********************
PLAYLIST: 00008.MPLS
********************

Код:

Total   Video                                             
Title                                                           Codec   Length  Movie Size      Disc Size       Bitrate Bitrate Main Audio Track                          Secondary Audio Track
-----                                                           ------  ------- --------------  --------------  ------- ------- ------------------                        ---------------------
00008.MPLS                                                      AVC     0:02:24 371,447,808     31,101,623,270  20.53   14.99   DTS-HD Master 5.1 4369Kbps (48kHz/24-bit)

Код:

DISC INFO:
Disc Title:     Feel That Beat
Disc Label:     Feel.the.Beat.2020.GERMAN.DUAL.COMPLETE.BLURAY-UNiVERSUM
Disc Size:      31,101,623,270 bytes
Protection:     AACS
BDInfo:         0.7.5.5
PLAYLIST REPORT:
Name:                   00008.MPLS
Length:                 0:02:24.708 (h:m:s.ms)
Size:                   371,447,808 bytes
Total Bitrate:          20.53 Mbps
VIDEO:
Codec                   Bitrate             Deion     
-----                   -------             -----------     
MPEG-4 AVC Video        14995 kbps          1080p / 24 fps / 16:9 / High Profile 4.1
AUDIO:
Codec                           Language        Bitrate         Deion     
-----                           --------        -------         -----------     
DTS-HD Master Audio             Russian         4369 kbps       5.1 / 48 kHz /  4369 kbps / 24-bit (DTS Core: 5.1 / 48 kHz /  1509 kbps / 24-bit)
FILES:
Name            Time In         Length          Size            Total Bitrate   
----            -------         ------          ----            -------------   
00008.M2TS      0:00:00.000     0:02:24.708     371,447,808     20,535         
CHAPTERS:
Number          Time In         Length          Avg Video Rate  Max 1-Sec Rate  Max 1-Sec Time  Max 5-Sec Rate  Max 5-Sec Time  Max 10Sec Rate  Max 10Sec Time  Avg Frame Size  Max Frame Size  Max Frame Time 
------          -------         ------          --------------  --------------  --------------  --------------  --------------  --------------  --------------  --------------  --------------  -------------- 
1               0:00:00.000     0:02:24.708     14,995 kbps     26,492 kbps     00:02:10.125    23,094 kbps     00:00:08.500    21,161 kbps     00:00:06.083    78,097 bytes    254,009 bytes   00:01:15.625   
STREAM DIAGNOSTICS:
File            PID             Type            Codec           Language                Seconds                 Bitrate                 Bytes           Packets         
----            ---             ----            -----           --------                --------------          --------------          -------------   -----           
00008.M2TS      4113 (0x1011)   0x1B            AVC                                     144.542                 15,012                  271,229,286     1,476,058       
00008.M2TS      4352 (0x1100)   0x86            DTS-HD MA       rus (Russian)           144.542                 4,374                   79,028,916      452,093         
QUICK SUMMARY:
Disc Title: Feel That Beat
Disc Label: Feel.the.Beat.2020.GERMAN.DUAL.COMPLETE.BLURAY-UNiVERSUM
Disc Size: 31,101,623,270 bytes
Protection: AACS
Playlist: 00008.MPLS
Size: 371,447,808 bytes
Length: 0:02:24.708
Total Bitrate: 20.53 Mbps
Video: MPEG-4 AVC Video / 14995 kbps / 1080p / 24 fps / 16:9 / High Profile 4.1
Audio: Russian / DTS-HD Master Audio / 5.1 / 48 kHz / 4369 kbps / 24-bit (DTS Core: 5.1 / 48 kHz / 1509 kbps / 24-bit)
********************
PLAYLIST: 01152.MPLS
********************

Код:

Total   Video                                             
Title                                                           Codec   Length  Movie Size      Disc Size       Bitrate Bitrate Main Audio Track                          Secondary Audio Track
-----                                                           ------  ------- --------------  --------------  ------- ------- ------------------                        ---------------------
01152.MPLS                                                      AVC     0:02:24 371,447,808     31,101,623,270  20.53   14.99   DTS-HD Master 5.1 4369Kbps (48kHz/24-bit)

Код:

DISC INFO:
Disc Title:     Feel That Beat
Disc Label:     Feel.the.Beat.2020.GERMAN.DUAL.COMPLETE.BLURAY-UNiVERSUM
Disc Size:      31,101,623,270 bytes
Protection:     AACS
BDInfo:         0.7.5.5
PLAYLIST REPORT:
Name:                   01152.MPLS
Length:                 0:02:24.708 (h:m:s.ms)
Size:                   371,447,808 bytes
Total Bitrate:          20.53 Mbps
VIDEO:
Codec                   Bitrate             Deion     
-----                   -------             -----------     
MPEG-4 AVC Video        14995 kbps          1080p / 24 fps / 16:9 / High Profile 4.1
AUDIO:
Codec                           Language        Bitrate         Deion     
-----                           --------        -------         -----------     
DTS-HD Master Audio             Russian         4369 kbps       5.1 / 48 kHz /  4369 kbps / 24-bit (DTS Core: 5.1 / 48 kHz /  1509 kbps / 24-bit)
FILES:
Name            Time In         Length          Size            Total Bitrate   
----            -------         ------          ----            -------------   
00008.M2TS      0:00:00.000     0:02:24.708     371,447,808     20,535         
CHAPTERS:
Number          Time In         Length          Avg Video Rate  Max 1-Sec Rate  Max 1-Sec Time  Max 5-Sec Rate  Max 5-Sec Time  Max 10Sec Rate  Max 10Sec Time  Avg Frame Size  Max Frame Size  Max Frame Time 
------          -------         ------          --------------  --------------  --------------  --------------  --------------  --------------  --------------  --------------  --------------  -------------- 
1               0:00:00.000     0:02:24.708     14,995 kbps     26,492 kbps     00:02:10.125    23,094 kbps     00:00:08.500    21,161 kbps     00:00:06.083    78,097 bytes    254,009 bytes   00:01:15.625   
STREAM DIAGNOSTICS:
File            PID             Type            Codec           Language                Seconds                 Bitrate                 Bytes           Packets         
----            ---             ----            -----           --------                --------------          --------------          -------------   -----           
00008.M2TS      4113 (0x1011)   0x1B            AVC                                     144.542                 15,012                  271,229,286     1,476,058       
00008.M2TS      4352 (0x1100)   0x86            DTS-HD MA       rus (Russian)           144.542                 4,374                   79,028,916      452,093         
QUICK SUMMARY:
Disc Title: Feel That Beat
Disc Label: Feel.the.Beat.2020.GERMAN.DUAL.COMPLETE.BLURAY-UNiVERSUM
Disc Size: 31,101,623,270 bytes
Protection: AACS
Playlist: 01152.MPLS
Size: 371,447,808 bytes
Length: 0:02:24.708
Total Bitrate: 20.53 Mbps
Video: MPEG-4 AVC Video / 14995 kbps / 1080p / 24 fps / 16:9 / High Profile 4.1
Audio: Russian / DTS-HD Master Audio / 5.1 / 48 kHz / 4369 kbps / 24-bit (DTS Core: 5.1 / 48 kHz / 1509 kbps / 24-bit)
********************
PLAYLIST: 00009.MPLS
********************

Код:

Total   Video                                             
Title                                                           Codec   Length  Movie Size      Disc Size       Bitrate Bitrate Main Audio Track                          Secondary Audio Track
-----                                                           ------  ------- --------------  --------------  ------- ------- ------------------                        ---------------------
00009.MPLS                                                      AVC     0:02:16 357,611,520     31,101,623,270  20.96   15.00   DTS-HD Master 5.1 4774Kbps (48kHz/24-bit)

Код:

DISC INFO:
Disc Title:     Feel That Beat
Disc Label:     Feel.the.Beat.2020.GERMAN.DUAL.COMPLETE.BLURAY-UNiVERSUM
Disc Size:      31,101,623,270 bytes
Protection:     AACS
BDInfo:         0.7.5.5
PLAYLIST REPORT:
Name:                   00009.MPLS
Length:                 0:02:16.500 (h:m:s.ms)
Size:                   357,611,520 bytes
Total Bitrate:          20.96 Mbps
VIDEO:
Codec                   Bitrate             Deion     
-----                   -------             -----------     
MPEG-4 AVC Video        14995 kbps          1080p / 24 fps / 16:9 / High Profile 4.1
AUDIO:
Codec                           Language        Bitrate         Deion     
-----                           --------        -------         -----------     
DTS-HD Master Audio             German          4774 kbps       5.1 / 48 kHz /  4774 kbps / 24-bit (DTS Core: 5.1 / 48 kHz /  1509 kbps / 24-bit)
FILES:
Name            Time In         Length          Size            Total Bitrate   
----            -------         ------          ----            -------------   
00009.M2TS      0:00:00.000     0:02:16.500     357,611,520     20,959         
CHAPTERS:
Number          Time In         Length          Avg Video Rate  Max 1-Sec Rate  Max 1-Sec Time  Max 5-Sec Rate  Max 5-Sec Time  Max 10Sec Rate  Max 10Sec Time  Avg Frame Size  Max Frame Size  Max Frame Time 
------          -------         ------          --------------  --------------  --------------  --------------  --------------  --------------  --------------  --------------  --------------  -------------- 
1               0:00:00.000     0:02:16.500     14,995 kbps     33,707 kbps     00:01:31.916    22,558 kbps     00:01:28.208    19,751 kbps     00:01:10.958    78,101 bytes    319,685 bytes   00:01:56.750   
STREAM DIAGNOSTICS:
File            PID             Type            Codec           Language                Seconds                 Bitrate                 Bytes           Packets         
----            ---             ----            -----           --------                --------------          --------------          -------------   -----           
00009.M2TS      4113 (0x1011)   0x1B            AVC                                     136.333                 15,014                  255,860,215     1,392,425       
00009.M2TS      4352 (0x1100)   0x86            DTS-HD MA       deu (German)            136.333                 4,780                   81,461,432      464,021         
QUICK SUMMARY:
Disc Title: Feel That Beat
Disc Label: Feel.the.Beat.2020.GERMAN.DUAL.COMPLETE.BLURAY-UNiVERSUM
Disc Size: 31,101,623,270 bytes
Protection: AACS
Playlist: 00009.MPLS
Size: 357,611,520 bytes
Length: 0:02:16.500
Total Bitrate: 20.96 Mbps
Video: MPEG-4 AVC Video / 14995 kbps / 1080p / 24 fps / 16:9 / High Profile 4.1
Audio: German / DTS-HD Master Audio / 5.1 / 48 kHz / 4774 kbps / 24-bit (DTS Core: 5.1 / 48 kHz / 1509 kbps / 24-bit)
********************
PLAYLIST: 01202.MPLS
********************

Код:

Total   Video                                             
Title                                                           Codec   Length  Movie Size      Disc Size       Bitrate Bitrate Main Audio Track                          Secondary Audio Track
-----                                                           ------  ------- --------------  --------------  ------- ------- ------------------                        ---------------------
01202.MPLS                                                      AVC     0:02:16 357,611,520     31,101,623,270  20.96   15.00   DTS-HD Master 5.1 4774Kbps (48kHz/24-bit)

Код:

DISC INFO:
Disc Title:     Feel That Beat
Disc Label:     Feel.the.Beat.2020.GERMAN.DUAL.COMPLETE.BLURAY-UNiVERSUM
Disc Size:      31,101,623,270 bytes
Protection:     AACS
BDInfo:         0.7.5.5
PLAYLIST REPORT:
Name:                   01202.MPLS
Length:                 0:02:16.500 (h:m:s.ms)
Size:                   357,611,520 bytes
Total Bitrate:          20.96 Mbps
VIDEO:
Codec                   Bitrate             Deion     
-----                   -------             -----------     
MPEG-4 AVC Video        14995 kbps          1080p / 24 fps / 16:9 / High Profile 4.1
AUDIO:
Codec                           Language        Bitrate         Deion     
-----                           --------        -------         -----------     
DTS-HD Master Audio             German          4774 kbps       5.1 / 48 kHz /  4774 kbps / 24-bit (DTS Core: 5.1 / 48 kHz /  1509 kbps / 24-bit)
FILES:
Name            Time In         Length          Size            Total Bitrate   
----            -------         ------          ----            -------------   
00009.M2TS      0:00:00.000     0:02:16.500     357,611,520     20,959         
CHAPTERS:
Number          Time In         Length          Avg Video Rate  Max 1-Sec Rate  Max 1-Sec Time  Max 5-Sec Rate  Max 5-Sec Time  Max 10Sec Rate  Max 10Sec Time  Avg Frame Size  Max Frame Size  Max Frame Time 
------          -------         ------          --------------  --------------  --------------  --------------  --------------  --------------  --------------  --------------  --------------  -------------- 
1               0:00:00.000     0:02:16.500     14,995 kbps     33,707 kbps     00:01:31.916    22,558 kbps     00:01:28.208    19,751 kbps     00:01:10.958    78,101 bytes    319,685 bytes   00:01:56.750   
STREAM DIAGNOSTICS:
File            PID             Type            Codec           Language                Seconds                 Bitrate                 Bytes           Packets         
----            ---             ----            -----           --------                --------------          --------------          -------------   -----           
00009.M2TS      4113 (0x1011)   0x1B            AVC                                     136.333                 15,014                  255,860,215     1,392,425       
00009.M2TS      4352 (0x1100)   0x86            DTS-HD MA       deu (German)            136.333                 4,780                   81,461,432      464,021         
QUICK SUMMARY:
Disc Title: Feel That Beat
Disc Label: Feel.the.Beat.2020.GERMAN.DUAL.COMPLETE.BLURAY-UNiVERSUM
Disc Size: 31,101,623,270 bytes
Protection: AACS
Playlist: 01202.MPLS
Size: 357,611,520 bytes
Length: 0:02:16.500
Total Bitrate: 20.96 Mbps
Video: MPEG-4 AVC Video / 14995 kbps / 1080p / 24 fps / 16:9 / High Profile 4.1
Audio: German / DTS-HD Master Audio / 5.1 / 48 kHz / 4774 kbps / 24-bit (DTS Core: 5.1 / 48 kHz / 1509 kbps / 24-bit)
********************
PLAYLIST: 01211.MPLS
********************

Код:

Total   Video                                             
Title                                                           Codec   Length  Movie Size      Disc Size       Bitrate Bitrate Main Audio Track                          Secondary Audio Track
-----                                                           ------  ------- --------------  --------------  ------- ------- ------------------                        ---------------------
01211.MPLS                                                      AVC     0:02:16 357,611,520     31,101,623,270  20.96   15.00   DTS-HD Master 5.1 4774Kbps (48kHz/24-bit)

Код:

DISC INFO:
Disc Title:     Feel That Beat
Disc Label:     Feel.the.Beat.2020.GERMAN.DUAL.COMPLETE.BLURAY-UNiVERSUM
Disc Size:      31,101,623,270 bytes
Protection:     AACS
BDInfo:         0.7.5.5
PLAYLIST REPORT:
Name:                   01211.MPLS
Length:                 0:02:16.500 (h:m:s.ms)
Size:                   357,611,520 bytes
Total Bitrate:          20.96 Mbps
VIDEO:
Codec                   Bitrate             Deion     
-----                   -------             -----------     
MPEG-4 AVC Video        14995 kbps          1080p / 24 fps / 16:9 / High Profile 4.1
AUDIO:
Codec                           Language        Bitrate         Deion     
-----                           --------        -------         -----------     
DTS-HD Master Audio             German          4774 kbps       5.1 / 48 kHz /  4774 kbps / 24-bit (DTS Core: 5.1 / 48 kHz /  1509 kbps / 24-bit)
FILES:
Name            Time In         Length          Size            Total Bitrate   
----            -------         ------          ----            -------------   
00009.M2TS      0:00:00.000     0:02:16.500     357,611,520     20,959         
CHAPTERS:
Number          Time In         Length          Avg Video Rate  Max 1-Sec Rate  Max 1-Sec Time  Max 5-Sec Rate  Max 5-Sec Time  Max 10Sec Rate  Max 10Sec Time  Avg Frame Size  Max Frame Size  Max Frame Time 
------          -------         ------          --------------  --------------  --------------  --------------  --------------  --------------  --------------  --------------  --------------  -------------- 
1               0:00:00.000     0:02:16.500     14,995 kbps     33,707 kbps     00:01:31.916    22,558 kbps     00:01:28.208    19,751 kbps     00:01:10.958    78,101 bytes    319,685 bytes   00:01:56.750   
STREAM DIAGNOSTICS:
File            PID             Type            Codec           Language                Seconds                 Bitrate                 Bytes           Packets         
----            ---             ----            -----           --------                --------------          --------------          -------------   -----           
00009.M2TS      4113 (0x1011)   0x1B            AVC                                     136.333                 15,014                  255,860,215     1,392,425       
00009.M2TS      4352 (0x1100)   0x86            DTS-HD MA       deu (German)            136.333                 4,780                   81,461,432      464,021         
QUICK SUMMARY:
Disc Title: Feel That Beat
Disc Label: Feel.the.Beat.2020.GERMAN.DUAL.COMPLETE.BLURAY-UNiVERSUM
Disc Size: 31,101,623,270 bytes
Protection: AACS
Playlist: 01211.MPLS
Size: 357,611,520 bytes
Length: 0:02:16.500
Total Bitrate: 20.96 Mbps
Video: MPEG-4 AVC Video / 14995 kbps / 1080p / 24 fps / 16:9 / High Profile 4.1
Audio: German / DTS-HD Master Audio / 5.1 / 48 kHz / 4774 kbps / 24-bit (DTS Core: 5.1 / 48 kHz / 1509 kbps / 24-bit)
********************
PLAYLIST: 00011.MPLS
********************

Код:

Total   Video                                             
Title                                                           Codec   Length  Movie Size      Disc Size       Bitrate Bitrate Main Audio Track                          Secondary Audio Track
-----                                                           ------  ------- --------------  --------------  ------- ------- ------------------                        ---------------------
00011.MPLS                                                      AVC     0:02:07 327,899,136     31,101,623,270  20.58   15.00   DTS-HD Master 5.1 4411Kbps (48kHz/24-bit)

Код:

DISC INFO:
Disc Title:     Feel That Beat
Disc Label:     Feel.the.Beat.2020.GERMAN.DUAL.COMPLETE.BLURAY-UNiVERSUM
Disc Size:      31,101,623,270 bytes
Protection:     AACS
BDInfo:         0.7.5.5
PLAYLIST REPORT:
Name:                   00011.MPLS
Length:                 0:02:07.458 (h:m:s.ms)
Size:                   327,899,136 bytes
Total Bitrate:          20.58 Mbps
VIDEO:
Codec                   Bitrate             Deion     
-----                   -------             -----------     
MPEG-4 AVC Video        14997 kbps          1080p / 24 fps / 16:9 / High Profile 4.1
AUDIO:
Codec                           Language        Bitrate         Deion     
-----                           --------        -------         -----------     
DTS-HD Master Audio             German          4411 kbps       5.1 / 48 kHz /  4411 kbps / 24-bit (DTS Core: 5.1 / 48 kHz /  1509 kbps / 24-bit)
FILES:
Name            Time In         Length          Size            Total Bitrate   
----            -------         ------          ----            -------------   
00011.M2TS      0:00:00.000     0:02:07.458     327,899,136     20,581         
CHAPTERS:
Number          Time In         Length          Avg Video Rate  Max 1-Sec Rate  Max 1-Sec Time  Max 5-Sec Rate  Max 5-Sec Time  Max 10Sec Rate  Max 10Sec Time  Avg Frame Size  Max Frame Size  Max Frame Time 
------          -------         ------          --------------  --------------  --------------  --------------  --------------  --------------  --------------  --------------  --------------  -------------- 
1               0:00:00.000     0:02:07.458     14,997 kbps     29,158 kbps     00:01:47.374    24,330 kbps     00:00:45.583    21,751 kbps     00:00:42.750    78,107 bytes    310,908 bytes   00:01:35.916   
STREAM DIAGNOSTICS:
File            PID             Type            Codec           Language                Seconds                 Bitrate                 Bytes           Packets         
----            ---             ----            -----           --------                --------------          --------------          -------------   -----           
00011.M2TS      4113 (0x1011)   0x1B            AVC                                     127.292                 15,016                  238,929,275     1,300,274       
00011.M2TS      4352 (0x1100)   0x86            DTS-HD MA       deu (German)            127.292                 4,416                   70,269,548      401,829         
QUICK SUMMARY:
Disc Title: Feel That Beat
Disc Label: Feel.the.Beat.2020.GERMAN.DUAL.COMPLETE.BLURAY-UNiVERSUM
Disc Size: 31,101,623,270 bytes
Protection: AACS
Playlist: 00011.MPLS
Size: 327,899,136 bytes
Length: 0:02:07.458
Total Bitrate: 20.58 Mbps
Video: MPEG-4 AVC Video / 14997 kbps / 1080p / 24 fps / 16:9 / High Profile 4.1
Audio: German / DTS-HD Master Audio / 5.1 / 48 kHz / 4411 kbps / 24-bit (DTS Core: 5.1 / 48 kHz / 1509 kbps / 24-bit)
********************
PLAYLIST: 01213.MPLS
********************

Код:

Total   Video                                             
Title                                                           Codec   Length  Movie Size      Disc Size       Bitrate Bitrate Main Audio Track                          Secondary Audio Track
-----                                                           ------  ------- --------------  --------------  ------- ------- ------------------                        ---------------------
01213.MPLS                                                      AVC     0:02:07 327,899,136     31,101,623,270  20.58   15.00   DTS-HD Master 5.1 4411Kbps (48kHz/24-bit)

Код:

DISC INFO:
Disc Title:     Feel That Beat
Disc Label:     Feel.the.Beat.2020.GERMAN.DUAL.COMPLETE.BLURAY-UNiVERSUM
Disc Size:      31,101,623,270 bytes
Protection:     AACS
BDInfo:         0.7.5.5
PLAYLIST REPORT:
Name:                   01213.MPLS
Length:                 0:02:07.458 (h:m:s.ms)
Size:                   327,899,136 bytes
Total Bitrate:          20.58 Mbps
VIDEO:
Codec                   Bitrate             Deion     
-----                   -------             -----------     
MPEG-4 AVC Video        14997 kbps          1080p / 24 fps / 16:9 / High Profile 4.1
AUDIO:
Codec                           Language        Bitrate         Deion     
-----                           --------        -------         -----------     
DTS-HD Master Audio             German          4411 kbps       5.1 / 48 kHz /  4411 kbps / 24-bit (DTS Core: 5.1 / 48 kHz /  1509 kbps / 24-bit)
FILES:
Name            Time In         Length          Size            Total Bitrate   
----            -------         ------          ----            -------------   
00011.M2TS      0:00:00.000     0:02:07.458     327,899,136     20,581         
CHAPTERS:
Number          Time In         Length          Avg Video Rate  Max 1-Sec Rate  Max 1-Sec Time  Max 5-Sec Rate  Max 5-Sec Time  Max 10Sec Rate  Max 10Sec Time  Avg Frame Size  Max Frame Size  Max Frame Time 
------          -------         ------          --------------  --------------  --------------  --------------  --------------  --------------  --------------  --------------  --------------  -------------- 
1               0:00:00.000     0:02:07.458     14,997 kbps     29,158 kbps     00:01:47.374    24,330 kbps     00:00:45.583    21,751 kbps     00:00:42.750    78,107 bytes    310,908 bytes   00:01:35.916   
STREAM DIAGNOSTICS:
File            PID             Type            Codec           Language                Seconds                 Bitrate                 Bytes           Packets         
----            ---             ----            -----           --------                --------------          --------------          -------------   -----           
00011.M2TS      4113 (0x1011)   0x1B            AVC                                     127.292                 15,016                  238,929,275     1,300,274       
00011.M2TS      4352 (0x1100)   0x86            DTS-HD MA       deu (German)            127.292                 4,416                   70,269,548      401,829         
QUICK SUMMARY:
Disc Title: Feel That Beat
Disc Label: Feel.the.Beat.2020.GERMAN.DUAL.COMPLETE.BLURAY-UNiVERSUM
Disc Size: 31,101,623,270 bytes
Protection: AACS
Playlist: 01213.MPLS
Size: 327,899,136 bytes
Length: 0:02:07.458
Total Bitrate: 20.58 Mbps
Video: MPEG-4 AVC Video / 14997 kbps / 1080p / 24 fps / 16:9 / High Profile 4.1
Audio: German / DTS-HD Master Audio / 5.1 / 48 kHz / 4411 kbps / 24-bit (DTS Core: 5.1 / 48 kHz / 1509 kbps / 24-bit)
********************
PLAYLIST: 00010.MPLS
********************

Код:

Total   Video                                             
Title                                                           Codec   Length  Movie Size      Disc Size       Bitrate Bitrate Main Audio Track                          Secondary Audio Track
-----                                                           ------  ------- --------------  --------------  ------- ------- ------------------                        ---------------------
00010.MPLS                                                      AVC     0:01:38 255,277,056     31,101,623,270  20.67   15.00   DTS-HD Master 5.1 4498Kbps (48kHz/24-bit)

Код:

DISC INFO:
Disc Title:     Feel That Beat
Disc Label:     Feel.the.Beat.2020.GERMAN.DUAL.COMPLETE.BLURAY-UNiVERSUM
Disc Size:      31,101,623,270 bytes
Protection:     AACS
BDInfo:         0.7.5.5
PLAYLIST REPORT:
Name:                   00010.MPLS
Length:                 0:01:38.791 (h:m:s.ms)
Size:                   255,277,056 bytes
Total Bitrate:          20.67 Mbps
VIDEO:
Codec                   Bitrate             Deion     
-----                   -------             -----------     
MPEG-4 AVC Video        14997 kbps          1080p / 24 fps / 16:9 / High Profile 4.1
AUDIO:
Codec                           Language        Bitrate         Deion     
-----                           --------        -------         -----------     
DTS-HD Master Audio             German          4498 kbps       5.1 / 48 kHz /  4498 kbps / 24-bit (DTS Core: 5.1 / 48 kHz /  1509 kbps / 24-bit)
FILES:
Name            Time In         Length          Size            Total Bitrate   
----            -------         ------          ----            -------------   
00010.M2TS      0:00:00.000     0:01:38.791     255,277,056     20,672         
CHAPTERS:
Number          Time In         Length          Avg Video Rate  Max 1-Sec Rate  Max 1-Sec Time  Max 5-Sec Rate  Max 5-Sec Time  Max 10Sec Rate  Max 10Sec Time  Avg Frame Size  Max Frame Size  Max Frame Time 
------          -------         ------          --------------  --------------  --------------  --------------  --------------  --------------  --------------  --------------  --------------  -------------- 
1               0:00:00.000     0:01:38.791     14,997 kbps     29,288 kbps     00:00:45.375    23,456 kbps     00:01:17.708    22,009 kbps     00:01:13.250    78,112 bytes    218,056 bytes   00:00:47.416   
STREAM DIAGNOSTICS:
File            PID             Type            Codec           Language                Seconds                 Bitrate                 Bytes           Packets         
----            ---             ----            -----           --------                --------------          --------------          -------------   -----           
00010.M2TS      4113 (0x1011)   0x1B            AVC                                     98.625                  15,023                  185,203,035     1,007,904       
00010.M2TS      4352 (0x1100)   0x86            DTS-HD MA       deu (German)            98.625                  4,506                   55,547,116      317,234         
QUICK SUMMARY:
Disc Title: Feel That Beat
Disc Label: Feel.the.Beat.2020.GERMAN.DUAL.COMPLETE.BLURAY-UNiVERSUM
Disc Size: 31,101,623,270 bytes
Protection: AACS
Playlist: 00010.MPLS
Size: 255,277,056 bytes
Length: 0:01:38.791
Total Bitrate: 20.67 Mbps
Video: MPEG-4 AVC Video / 14997 kbps / 1080p / 24 fps / 16:9 / High Profile 4.1
Audio: German / DTS-HD Master Audio / 5.1 / 48 kHz / 4498 kbps / 24-bit (DTS Core: 5.1 / 48 kHz / 1509 kbps / 24-bit)
********************
PLAYLIST: 01201.MPLS
********************

Код:

Total   Video                                             
Title                                                           Codec   Length  Movie Size      Disc Size       Bitrate Bitrate Main Audio Track                          Secondary Audio Track
-----                                                           ------  ------- --------------  --------------  ------- ------- ------------------                        ---------------------
01201.MPLS                                                      AVC     0:01:38 255,277,056     31,101,623,270  20.67   15.00   DTS-HD Master 5.1 4498Kbps (48kHz/24-bit)

Код:

DISC INFO:
Disc Title:     Feel That Beat
Disc Label:     Feel.the.Beat.2020.GERMAN.DUAL.COMPLETE.BLURAY-UNiVERSUM
Disc Size:      31,101,623,270 bytes
Protection:     AACS
BDInfo:         0.7.5.5
PLAYLIST REPORT:
Name:                   01201.MPLS
Length:                 0:01:38.791 (h:m:s.ms)
Size:                   255,277,056 bytes
Total Bitrate:          20.67 Mbps
VIDEO:
Codec                   Bitrate             Deion     
-----                   -------             -----------     
MPEG-4 AVC Video        14997 kbps          1080p / 24 fps / 16:9 / High Profile 4.1
AUDIO:
Codec                           Language        Bitrate         Deion     
-----                           --------        -------         -----------     
DTS-HD Master Audio             German          4498 kbps       5.1 / 48 kHz /  4498 kbps / 24-bit (DTS Core: 5.1 / 48 kHz /  1509 kbps / 24-bit)
FILES:
Name            Time In         Length          Size            Total Bitrate   
----            -------         ------          ----            -------------   
00010.M2TS      0:00:00.000     0:01:38.791     255,277,056     20,672         
CHAPTERS:
Number          Time In         Length          Avg Video Rate  Max 1-Sec Rate  Max 1-Sec Time  Max 5-Sec Rate  Max 5-Sec Time  Max 10Sec Rate  Max 10Sec Time  Avg Frame Size  Max Frame Size  Max Frame Time 
------          -------         ------          --------------  --------------  --------------  --------------  --------------  --------------  --------------  --------------  --------------  -------------- 
1               0:00:00.000     0:01:38.791     14,997 kbps     29,288 kbps     00:00:45.375    23,456 kbps     00:01:17.708    22,009 kbps     00:01:13.250    78,112 bytes    218,056 bytes   00:00:47.416   
STREAM DIAGNOSTICS:
File            PID             Type            Codec           Language                Seconds                 Bitrate                 Bytes           Packets         
----            ---             ----            -----           --------                --------------          --------------          -------------   -----           
00010.M2TS      4113 (0x1011)   0x1B            AVC                                     98.625                  15,023                  185,203,035     1,007,904       
00010.M2TS      4352 (0x1100)   0x86            DTS-HD MA       deu (German)            98.625                  4,506                   55,547,116      317,234         
QUICK SUMMARY:
Disc Title: Feel That Beat
Disc Label: Feel.the.Beat.2020.GERMAN.DUAL.COMPLETE.BLURAY-UNiVERSUM
Disc Size: 31,101,623,270 bytes
Protection: AACS
Playlist: 01201.MPLS
Size: 255,277,056 bytes
Length: 0:01:38.791
Total Bitrate: 20.67 Mbps
Video: MPEG-4 AVC Video / 14997 kbps / 1080p / 24 fps / 16:9 / High Profile 4.1
Audio: German / DTS-HD Master Audio / 5.1 / 48 kHz / 4498 kbps / 24-bit (DTS Core: 5.1 / 48 kHz / 1509 kbps / 24-bit)
********************
PLAYLIST: 01212.MPLS
********************

Код:

Total   Video                                             
Title                                                           Codec   Length  Movie Size      Disc Size       Bitrate Bitrate Main Audio Track                          Secondary Audio Track
-----                                                           ------  ------- --------------  --------------  ------- ------- ------------------                        ---------------------
01212.MPLS                                                      AVC     0:01:38 255,277,056     31,101,623,270  20.67   15.00   DTS-HD Master 5.1 4498Kbps (48kHz/24-bit)

Код:

DISC INFO:
Disc Title:     Feel That Beat
Disc Label:     Feel.the.Beat.2020.GERMAN.DUAL.COMPLETE.BLURAY-UNiVERSUM
Disc Size:      31,101,623,270 bytes
Protection:     AACS
BDInfo:         0.7.5.5
PLAYLIST REPORT:
Name:                   01212.MPLS
Length:                 0:01:38.791 (h:m:s.ms)
Size:                   255,277,056 bytes
Total Bitrate:          20.67 Mbps
VIDEO:
Codec                   Bitrate             Deion     
-----                   -------             -----------     
MPEG-4 AVC Video        14997 kbps          1080p / 24 fps / 16:9 / High Profile 4.1
AUDIO:
Codec                           Language        Bitrate         Deion     
-----                           --------        -------         -----------     
DTS-HD Master Audio             German          4498 kbps       5.1 / 48 kHz /  4498 kbps / 24-bit (DTS Core: 5.1 / 48 kHz /  1509 kbps / 24-bit)
FILES:
Name            Time In         Length          Size            Total Bitrate   
----            -------         ------          ----            -------------   
00010.M2TS      0:00:00.000     0:01:38.791     255,277,056     20,672         
CHAPTERS:
Number          Time In         Length          Avg Video Rate  Max 1-Sec Rate  Max 1-Sec Time  Max 5-Sec Rate  Max 5-Sec Time  Max 10Sec Rate  Max 10Sec Time  Avg Frame Size  Max Frame Size  Max Frame Time 
------          -------         ------          --------------  --------------  --------------  --------------  --------------  --------------  --------------  --------------  --------------  -------------- 
1               0:00:00.000     0:01:38.791     14,997 kbps     29,288 kbps     00:00:45.375    23,456 kbps     00:01:17.708    22,009 kbps     00:01:13.250    78,112 bytes    218,056 bytes   00:00:47.416   
STREAM DIAGNOSTICS:
File            PID             Type            Codec           Language                Seconds                 Bitrate                 Bytes           Packets         
----            ---             ----            -----           --------                --------------          --------------          -------------   -----           
00010.M2TS      4113 (0x1011)   0x1B            AVC                                     98.625                  15,023                  185,203,035     1,007,904       
00010.M2TS      4352 (0x1100)   0x86            DTS-HD MA       deu (German)            98.625                  4,506                   55,547,116      317,234         
QUICK SUMMARY:
Disc Title: Feel That Beat
Disc Label: Feel.the.Beat.2020.GERMAN.DUAL.COMPLETE.BLURAY-UNiVERSUM
Disc Size: 31,101,623,270 bytes
Protection: AACS
Playlist: 01212.MPLS
Size: 255,277,056 bytes
Length: 0:01:38.791
Total Bitrate: 20.67 Mbps
Video: MPEG-4 AVC Video / 14997 kbps / 1080p / 24 fps / 16:9 / High Profile 4.1
Audio: German / DTS-HD Master Audio / 5.1 / 48 kHz / 4498 kbps / 24-bit (DTS Core: 5.1 / 48 kHz / 1509 kbps / 24-bit)
********************
PLAYLIST: 00012.MPLS
********************

Код:

Total   Video                                             
Title                                                           Codec   Length  Movie Size      Disc Size       Bitrate Bitrate Main Audio Track                          Secondary Audio Track
-----                                                           ------  ------- --------------  --------------  ------- ------- ------------------                        ---------------------
00012.MPLS                                                      AVC     0:01:26 217,479,168     31,101,623,270  20.06   15.00   DTS-HD Master 5.1 3906Kbps (48kHz/24-bit)

Код:

DISC INFO:
Disc Title:     Feel That Beat
Disc Label:     Feel.the.Beat.2020.GERMAN.DUAL.COMPLETE.BLURAY-UNiVERSUM
Disc Size:      31,101,623,270 bytes
Protection:     AACS
BDInfo:         0.7.5.5
PLAYLIST REPORT:
Name:                   00012.MPLS
Length:                 0:01:26.750 (h:m:s.ms)
Size:                   217,479,168 bytes
Total Bitrate:          20.06 Mbps
VIDEO:
Codec                   Bitrate             Deion     
-----                   -------             -----------     
MPEG-4 AVC Video        15000 kbps          1080p / 24 fps / 16:9 / High Profile 4.1
AUDIO:
Codec                           Language        Bitrate         Deion     
-----                           --------        -------         -----------     
DTS-HD Master Audio             German          3906 kbps       5.1 / 48 kHz /  3906 kbps / 24-bit (DTS Core: 5.1 / 48 kHz /  1509 kbps / 24-bit)
FILES:
Name            Time In         Length          Size            Total Bitrate   
----            -------         ------          ----            -------------   
00012.M2TS      0:00:00.000     0:01:26.750     217,479,168     20,056         
CHAPTERS:
Number          Time In         Length          Avg Video Rate  Max 1-Sec Rate  Max 1-Sec Time  Max 5-Sec Rate  Max 5-Sec Time  Max 10Sec Rate  Max 10Sec Time  Avg Frame Size  Max Frame Size  Max Frame Time 
------          -------         ------          --------------  --------------  --------------  --------------  --------------  --------------  --------------  --------------  --------------  -------------- 
1               0:00:00.000     0:01:26.750     15,000 kbps     25,789 kbps     00:00:20.749    21,417 kbps     00:00:32.708    20,096 kbps     00:00:19.250    78,123 bytes    195,710 bytes   00:00:42.541   
STREAM DIAGNOSTICS:
File            PID             Type            Codec           Language                Seconds                 Bitrate                 Bytes           Packets         
----            ---             ----            -----           --------                --------------          --------------          -------------   -----           
00012.M2TS      4113 (0x1011)   0x1B            AVC                                     86.583                  15,028                  162,651,455     885,164         
00012.M2TS      4352 (0x1100)   0x86            DTS-HD MA       deu (German)            86.583                  3,914                   42,357,068      243,666         
QUICK SUMMARY:
Disc Title: Feel That Beat
Disc Label: Feel.the.Beat.2020.GERMAN.DUAL.COMPLETE.BLURAY-UNiVERSUM
Disc Size: 31,101,623,270 bytes
Protection: AACS
Playlist: 00012.MPLS
Size: 217,479,168 bytes
Length: 0:01:26.750
Total Bitrate: 20.06 Mbps
Video: MPEG-4 AVC Video / 15000 kbps / 1080p / 24 fps / 16:9 / High Profile 4.1
Audio: German / DTS-HD Master Audio / 5.1 / 48 kHz / 3906 kbps / 24-bit (DTS Core: 5.1 / 48 kHz / 1509 kbps / 24-bit)
********************
PLAYLIST: 01214.MPLS
********************

Код:

Total   Video                                             
Title                                                           Codec   Length  Movie Size      Disc Size       Bitrate Bitrate Main Audio Track                          Secondary Audio Track
-----                                                           ------  ------- --------------  --------------  ------- ------- ------------------                        ---------------------
01214.MPLS                                                      AVC     0:01:26 217,479,168     31,101,623,270  20.06   15.00   DTS-HD Master 5.1 3906Kbps (48kHz/24-bit)

Код:

DISC INFO:
Disc Title:     Feel That Beat
Disc Label:     Feel.the.Beat.2020.GERMAN.DUAL.COMPLETE.BLURAY-UNiVERSUM
Disc Size:      31,101,623,270 bytes
Protection:     AACS
BDInfo:         0.7.5.5
PLAYLIST REPORT:
Name:                   01214.MPLS
Length:                 0:01:26.750 (h:m:s.ms)
Size:                   217,479,168 bytes
Total Bitrate:          20.06 Mbps
VIDEO:
Codec                   Bitrate             Deion     
-----                   -------             -----------     
MPEG-4 AVC Video        15000 kbps          1080p / 24 fps / 16:9 / High Profile 4.1
AUDIO:
Codec                           Language        Bitrate         Deion     
-----                           --------        -------         -----------     
DTS-HD Master Audio             German          3906 kbps       5.1 / 48 kHz /  3906 kbps / 24-bit (DTS Core: 5.1 / 48 kHz /  1509 kbps / 24-bit)
FILES:
Name            Time In         Length          Size            Total Bitrate   
----            -------         ------          ----            -------------   
00012.M2TS      0:00:00.000     0:01:26.750     217,479,168     20,056         
CHAPTERS:
Number          Time In         Length          Avg Video Rate  Max 1-Sec Rate  Max 1-Sec Time  Max 5-Sec Rate  Max 5-Sec Time  Max 10Sec Rate  Max 10Sec Time  Avg Frame Size  Max Frame Size  Max Frame Time 
------          -------         ------          --------------  --------------  --------------  --------------  --------------  --------------  --------------  --------------  --------------  -------------- 
1               0:00:00.000     0:01:26.750     15,000 kbps     25,789 kbps     00:00:20.749    21,417 kbps     00:00:32.708    20,096 kbps     00:00:19.250    78,123 bytes    195,710 bytes   00:00:42.541   
STREAM DIAGNOSTICS:
File            PID             Type            Codec           Language                Seconds                 Bitrate                 Bytes           Packets         
----            ---             ----            -----           --------                --------------          --------------          -------------   -----           
00012.M2TS      4113 (0x1011)   0x1B            AVC                                     86.583                  15,028                  162,651,455     885,164         
00012.M2TS      4352 (0x1100)   0x86            DTS-HD MA       deu (German)            86.583                  3,914                   42,357,068      243,666         
QUICK SUMMARY:
Disc Title: Feel That Beat
Disc Label: Feel.the.Beat.2020.GERMAN.DUAL.COMPLETE.BLURAY-UNiVERSUM
Disc Size: 31,101,623,270 bytes
Protection: AACS
Playlist: 01214.MPLS
Size: 217,479,168 bytes
Length: 0:01:26.750
Total Bitrate: 20.06 Mbps
Video: MPEG-4 AVC Video / 15000 kbps / 1080p / 24 fps / 16:9 / High Profile 4.1
Audio: German / DTS-HD Master Audio / 5.1 / 48 kHz / 3906 kbps / 24-bit (DTS Core: 5.1 / 48 kHz / 1509 kbps / 24-bit)
********************
PLAYLIST: 00002.MPLS
********************

Код:

Total   Video                                             
Title                                                           Codec   Length  Movie Size      Disc Size       Bitrate Bitrate Main Audio Track                          Secondary Audio Track
-----                                                           ------  ------- --------------  --------------  ------- ------- ------------------                        ---------------------
00002.MPLS                                                      AVC     0:01:18 252,420,096     31,101,623,270  25.88   20.00   LPCM 2.0 2304Kbps (48kHz/24-bit)          LPCM 2.0 2304Kbps (48kHz/24-bit)

Код:

DISC INFO:
Disc Title:     Feel That Beat
Disc Label:     Feel.the.Beat.2020.GERMAN.DUAL.COMPLETE.BLURAY-UNiVERSUM
Disc Size:      31,101,623,270 bytes
Protection:     AACS
BDInfo:         0.7.5.5
PLAYLIST REPORT:
Name:                   00002.MPLS
Length:                 0:01:18.041 (h:m:s.ms)
Size:                   252,420,096 bytes
Total Bitrate:          25.88 Mbps
VIDEO:
Codec                   Bitrate             Deion     
-----                   -------             -----------     
MPEG-4 AVC Video        20000 kbps          1080p / 24 fps / 16:9 / High Profile 4.1
AUDIO:
Codec                           Language        Bitrate         Deion     
-----                           --------        -------         -----------     
LPCM Audio                      Undetermined    2304 kbps       2.0 / 48 kHz /  2304 kbps / 24-bit
LPCM Audio                      Undetermined    2304 kbps       2.0 / 48 kHz /  2304 kbps / 24-bit
SUBTITLES:
Codec                           Language        Bitrate         Deion     
-----                           --------        -------         -----------     
Presentation Graphics           Undetermined    0.155 kbps                     
Presentation Graphics           Undetermined    0.155 kbps                     
FILES:
Name            Time In         Length          Size            Total Bitrate   
----            -------         ------          ----            -------------   
00002.M2TS      0:00:00.000     0:01:18.041     252,420,096     25,875         
CHAPTERS:
Number          Time In         Length          Avg Video Rate  Max 1-Sec Rate  Max 1-Sec Time  Max 5-Sec Rate  Max 5-Sec Time  Max 10Sec Rate  Max 10Sec Time  Avg Frame Size  Max Frame Size  Max Frame Time 
------          -------         ------          --------------  --------------  --------------  --------------  --------------  --------------  --------------  --------------  --------------  -------------- 
1               0:00:00.000     0:01:18.041     20,000 kbps     23,783 kbps     00:00:00.458    20,742 kbps     00:00:30.625    20,516 kbps     00:00:05.958    104,165 bytes   345,219 bytes   00:01:17.500   
STREAM DIAGNOSTICS:
File            PID             Type            Codec           Language                Seconds                 Bitrate                 Bytes           Packets         
----            ---             ----            -----           --------                --------------          --------------          -------------   -----           
00002.M2TS      4113 (0x1011)   0x1B            AVC                                     77.917                  20,032                  195,101,713     1,061,410       
00002.M2TS      4352 (0x1100)   0x80            LPCM            und (Undetermined)      77.917                  2,314                   22,539,396      124,872         
00002.M2TS      4353 (0x1101)   0x80            LPCM            und (Undetermined)      77.917                  2,314                   22,539,396      124,872         
00002.M2TS      4608 (0x1200)   0x90            PGS             und (Undetermined)      77.917                  0                       1,512           15             
00002.M2TS      4609 (0x1201)   0x90            PGS             und (Undetermined)      77.917                  0                       1,512           15             
QUICK SUMMARY:
Disc Title: Feel That Beat
Disc Label: Feel.the.Beat.2020.GERMAN.DUAL.COMPLETE.BLURAY-UNiVERSUM
Disc Size: 31,101,623,270 bytes
Protection: AACS
Playlist: 00002.MPLS
Size: 252,420,096 bytes
Length: 0:01:18.041
Total Bitrate: 25.88 Mbps
Video: MPEG-4 AVC Video / 20000 kbps / 1080p / 24 fps / 16:9 / High Profile 4.1
Audio: Undetermined / LPCM Audio / 2.0 / 48 kHz / 2304 kbps / 24-bit
Audio: Undetermined / LPCM Audio / 2.0 / 48 kHz / 2304 kbps / 24-bit
Subtitle: Undetermined / 0.155 kbps
Subtitle: Undetermined / 0.155 kbps
********************
PLAYLIST: 00003.MPLS
********************

Код:

Total   Video                                             
Title                                                           Codec   Length  Movie Size      Disc Size       Bitrate Bitrate Main Audio Track                          Secondary Audio Track
-----                                                           ------  ------- --------------  --------------  ------- ------- ------------------                        ---------------------
00003.MPLS                                                      AVC     0:01:18 252,364,800     31,101,623,270  25.87   19.99   LPCM 2.0 2304Kbps (48kHz/24-bit)          LPCM 2.0 2304Kbps (48kHz/24-bit)

Код:

DISC INFO:
Disc Title:     Feel That Beat
Disc Label:     Feel.the.Beat.2020.GERMAN.DUAL.COMPLETE.BLURAY-UNiVERSUM
Disc Size:      31,101,623,270 bytes
Protection:     AACS
BDInfo:         0.7.5.5
PLAYLIST REPORT:
Name:                   00003.MPLS
Length:                 0:01:18.041 (h:m:s.ms)
Size:                   252,364,800 bytes
Total Bitrate:          25.87 Mbps
VIDEO:
Codec                   Bitrate             Deion     
-----                   -------             -----------     
MPEG-4 AVC Video        19994 kbps          1080p / 24 fps / 16:9 / High Profile 4.1
AUDIO:
Codec                           Language        Bitrate         Deion     
-----                           --------        -------         -----------     
LPCM Audio                      Undetermined    2304 kbps       2.0 / 48 kHz /  2304 kbps / 24-bit
LPCM Audio                      Undetermined    2304 kbps       2.0 / 48 kHz /  2304 kbps / 24-bit
SUBTITLES:
Codec                           Language        Bitrate         Deion     
-----                           --------        -------         -----------     
Presentation Graphics           Undetermined    0.155 kbps                     
Presentation Graphics           Undetermined    0.155 kbps                     
FILES:
Name            Time In         Length          Size            Total Bitrate   
----            -------         ------          ----            -------------   
00003.M2TS      0:00:00.000     0:01:18.041     252,364,800     25,870         
CHAPTERS:
Number          Time In         Length          Avg Video Rate  Max 1-Sec Rate  Max 1-Sec Time  Max 5-Sec Rate  Max 5-Sec Time  Max 10Sec Rate  Max 10Sec Time  Avg Frame Size  Max Frame Size  Max Frame Time 
------          -------         ------          --------------  --------------  --------------  --------------  --------------  --------------  --------------  --------------  --------------  -------------- 
1               0:00:00.000     0:01:18.041     19,994 kbps     22,932 kbps     00:01:10.958    20,716 kbps     00:01:06.625    20,545 kbps     00:01:03.958    104,136 bytes   336,483 bytes   00:01:17.500   
STREAM DIAGNOSTICS:
File            PID             Type            Codec           Language                Seconds                 Bitrate                 Bytes           Packets         
----            ---             ----            -----           --------                --------------          --------------          -------------   -----           
00003.M2TS      4113 (0x1011)   0x1B            AVC                                     77.917                  20,026                  195,047,165     1,061,134       
00003.M2TS      4352 (0x1100)   0x80            LPCM            und (Undetermined)      77.917                  2,314                   22,539,396      124,872         
00003.M2TS      4353 (0x1101)   0x80            LPCM            und (Undetermined)      77.917                  2,314                   22,539,396      124,872         
00003.M2TS      4608 (0x1200)   0x90            PGS             und (Undetermined)      77.917                  0                       1,512           15             
00003.M2TS      4609 (0x1201)   0x90            PGS             und (Undetermined)      77.917                  0                       1,512           15             
QUICK SUMMARY:
Disc Title: Feel That Beat
Disc Label: Feel.the.Beat.2020.GERMAN.DUAL.COMPLETE.BLURAY-UNiVERSUM
Disc Size: 31,101,623,270 bytes
Protection: AACS
Playlist: 00003.MPLS
Size: 252,364,800 bytes
Length: 0:01:18.041
Total Bitrate: 25.87 Mbps
Video: MPEG-4 AVC Video / 19994 kbps / 1080p / 24 fps / 16:9 / High Profile 4.1
Audio: Undetermined / LPCM Audio / 2.0 / 48 kHz / 2304 kbps / 24-bit
Audio: Undetermined / LPCM Audio / 2.0 / 48 kHz / 2304 kbps / 24-bit
Subtitle: Undetermined / 0.155 kbps
Subtitle: Undetermined / 0.155 kbps
********************
PLAYLIST: 00007.MPLS
********************

Код:

Total   Video                                             
Title                                                           Codec   Length  Movie Size      Disc Size       Bitrate Bitrate Main Audio Track                          Secondary Audio Track
-----                                                           ------  ------- --------------  --------------  ------- ------- ------------------                        ---------------------
00007.MPLS                                                      AVC     0:01:13 191,895,552     31,101,623,270  20.91   15.00   DTS-HD Master 5.1 4724Kbps (48kHz/24-bit)

Код:

DISC INFO:
Disc Title:     Feel That Beat
Disc Label:     Feel.the.Beat.2020.GERMAN.DUAL.COMPLETE.BLURAY-UNiVERSUM
Disc Size:      31,101,623,270 bytes
Protection:     AACS
BDInfo:         0.7.5.5
PLAYLIST REPORT:
Name:                   00007.MPLS
Length:                 0:01:13.416 (h:m:s.ms)
Size:                   191,895,552 bytes
Total Bitrate:          20.91 Mbps
VIDEO:
Codec                   Bitrate             Deion     
-----                   -------             -----------     
MPEG-4 AVC Video        15000 kbps          1080p / 24 fps / 16:9 / High Profile 4.1
AUDIO:
Codec                           Language        Bitrate         Deion     
-----                           --------        -------         -----------     
DTS-HD Master Audio             German          4724 kbps       5.1 / 48 kHz /  4724 kbps / 24-bit (DTS Core: 5.1 / 48 kHz /  1509 kbps / 24-bit)
FILES:
Name            Time In         Length          Size            Total Bitrate   
----            -------         ------          ----            -------------   
00007.M2TS      0:00:00.000     0:01:13.416     191,895,552     20,910         
CHAPTERS:
Number          Time In         Length          Avg Video Rate  Max 1-Sec Rate  Max 1-Sec Time  Max 5-Sec Rate  Max 5-Sec Time  Max 10Sec Rate  Max 10Sec Time  Avg Frame Size  Max Frame Size  Max Frame Time 
------          -------         ------          --------------  --------------  --------------  --------------  --------------  --------------  --------------  --------------  --------------  -------------- 
1               0:00:00.000     0:01:13.416     15,000 kbps     26,598 kbps     00:00:52.041    22,745 kbps     00:00:48.875    20,795 kbps     00:00:49.708    78,122 bytes    271,801 bytes   00:00:11.333   
STREAM DIAGNOSTICS:
File            PID             Type            Codec           Language                Seconds                 Bitrate                 Bytes           Packets         
----            ---             ----            -----           --------                --------------          --------------          -------------   -----           
00007.M2TS      4113 (0x1011)   0x1B            AVC                                     73.250                  15,034                  137,651,681     749,120         
00007.M2TS      4352 (0x1100)   0x86            DTS-HD MA       deu (German)            73.250                  4,735                   43,351,496      247,052         
QUICK SUMMARY:
Disc Title: Feel That Beat
Disc Label: Feel.the.Beat.2020.GERMAN.DUAL.COMPLETE.BLURAY-UNiVERSUM
Disc Size: 31,101,623,270 bytes
Protection: AACS
Playlist: 00007.MPLS
Size: 191,895,552 bytes
Length: 0:01:13.416
Total Bitrate: 20.91 Mbps
Video: MPEG-4 AVC Video / 15000 kbps / 1080p / 24 fps / 16:9 / High Profile 4.1
Audio: German / DTS-HD Master Audio / 5.1 / 48 kHz / 4724 kbps / 24-bit (DTS Core: 5.1 / 48 kHz / 1509 kbps / 24-bit)
********************
PLAYLIST: 01151.MPLS
********************

Код:

Total   Video                                             
Title                                                           Codec   Length  Movie Size      Disc Size       Bitrate Bitrate Main Audio Track                          Secondary Audio Track
-----                                                           ------  ------- --------------  --------------  ------- ------- ------------------                        ---------------------
01151.MPLS                                                      AVC     0:01:13 191,895,552     31,101,623,270  20.91   15.00   DTS-HD Master 5.1 4724Kbps (48kHz/24-bit)

Код:

DISC INFO:
Disc Title:     Feel That Beat
Disc Label:     Feel.the.Beat.2020.GERMAN.DUAL.COMPLETE.BLURAY-UNiVERSUM
Disc Size:      31,101,623,270 bytes
Protection:     AACS
BDInfo:         0.7.5.5
PLAYLIST REPORT:
Name:                   01151.MPLS
Length:                 0:01:13.416 (h:m:s.ms)
Size:                   191,895,552 bytes
Total Bitrate:          20.91 Mbps
VIDEO:
Codec                   Bitrate             Deion     
-----                   -------             -----------     
MPEG-4 AVC Video        15000 kbps          1080p / 24 fps / 16:9 / High Profile 4.1
AUDIO:
Codec                           Language        Bitrate         Deion     
-----                           --------        -------         -----------     
DTS-HD Master Audio             German          4724 kbps       5.1 / 48 kHz /  4724 kbps / 24-bit (DTS Core: 5.1 / 48 kHz /  1509 kbps / 24-bit)
FILES:
Name            Time In         Length          Size            Total Bitrate   
----            -------         ------          ----            -------------   
00007.M2TS      0:00:00.000     0:01:13.416     191,895,552     20,910         
CHAPTERS:
Number          Time In         Length          Avg Video Rate  Max 1-Sec Rate  Max 1-Sec Time  Max 5-Sec Rate  Max 5-Sec Time  Max 10Sec Rate  Max 10Sec Time  Avg Frame Size  Max Frame Size  Max Frame Time 
------          -------         ------          --------------  --------------  --------------  --------------  --------------  --------------  --------------  --------------  --------------  -------------- 
1               0:00:00.000     0:01:13.416     15,000 kbps     26,598 kbps     00:00:52.041    22,745 kbps     00:00:48.875    20,795 kbps     00:00:49.708    78,122 bytes    271,801 bytes   00:00:11.333   
STREAM DIAGNOSTICS:
File            PID             Type            Codec           Language                Seconds                 Bitrate                 Bytes           Packets         
----            ---             ----            -----           --------                --------------          --------------          -------------   -----           
00007.M2TS      4113 (0x1011)   0x1B            AVC                                     73.250                  15,034                  137,651,681     749,120         
00007.M2TS      4352 (0x1100)   0x86            DTS-HD MA       deu (German)            73.250                  4,735                   43,351,496      247,052         
QUICK SUMMARY:
Disc Title: Feel That Beat
Disc Label: Feel.the.Beat.2020.GERMAN.DUAL.COMPLETE.BLURAY-UNiVERSUM
Disc Size: 31,101,623,270 bytes
Protection: AACS
Playlist: 01151.MPLS
Size: 191,895,552 bytes
Length: 0:01:13.416
Total Bitrate: 20.91 Mbps
Video: MPEG-4 AVC Video / 15000 kbps / 1080p / 24 fps / 16:9 / High Profile 4.1
Audio: German / DTS-HD Master Audio / 5.1 / 48 kHz / 4724 kbps / 24-bit (DTS Core: 5.1 / 48 kHz / 1509 kbps / 24-bit)

Этот торрент недоступен для скачивания без регистрации, однако доступен по публичной magnet-ссылке (источники с публичных трекеров). Перед использованием ссылки прочтите, пожалуйста Пользовательское соглашение, а также как можно дольше оставайтесь на раздаче! Для того, чтобы скачать сам торрент-файл (который видит больше источников), а также для того, чтобы поблагодарить релизера, вам необходимо зарегистрироваться. Если регистрироваться лень - вы можете также попробовать скачать релиз по нашим партнерским ссылкам ниже. Кроме того, зарегистрированным пользователям не показывается всплывающая реклама при скачивании.

[underver.se].t174053.torrent
Трекер: Зарегистрирован   [ 11.07.2020 05:35 ]  

Статус: проверено (by 90ytr90 at 11.07.2020 06:19)
Поблагодарили: пока никто не поблагодарил...
Тип торрента: публичный - доступные источники с открытых трекеров: 
Размер: 28,97 GB (занимает 6,62 DVDR, для записи нужно 7 болванок DVDR/RW)
 
 
Похожие темы
Форум Тема Автор Торрент Отв. Посл. сооб.
Наше кино [DVDRip, Low-Res HDRip, и т.д.] Битва (Анар Аббасов) [2019, Драма, BDRip] [GER Transfer] | Лицензия Konin
6 | 1

0 | 311

3

10.07.2020 20:30

Наше кино [DVDRip, Low-Res HDRip, и т.д.] Битва (Анар Аббасов) [2019, Драма, BDRip-AVC] [GER Transfer] | Лицензия Konin
6 | 0

1 | 337

3

10.07.2020 22:37

Наше кино [HDDVDRip / BDRip / WEB-DL / HDTV 1080/720р] Битва (Анар Аббасов) [2019, Драма, BDRip 1080p] [GER Transfer] | Лицензия Konin
17 | 0

0 | 261

0

11.07.2020 04:23

Наше кино [HDDVDRip / BDRip / WEB-DL / HDTV 1080/720р] Битва (Анар Аббасов) [2019, Драма, BDRip 720p] [GER Transfer] | Лицензия Konin
21 | 0

0 | 295

4

11.07.2020 05:58

Наше кино [HDDVDRip / BDRip / WEB-DL / HDTV 1080/720р] Битва (Анар Аббасов) [2019 г., драма, WEB-DL 1080p] Original (iTunes) 90ytr90
67 | 5

0 | 402

15

10.10.2019 11:22

Наше кино [HDDVDRip / BDRip / WEB-DL / HDTV 1080/720р] Битва (Анар Аббасов) [2019 г., драма, BDRip 1080p] [GER Transfer] 90ytr90
9 | 0

0 | 385

3

13.07.2020 19:04

yur_qwest 

16-Июл-2020 08:19

норм качество?

90ytr90 

17-Июл-2020 13:18

yur_qwest писал(а):

норм качество?
Да, не фигня. Немцы у нас в кинотеатре на телефон снимали. :D

Яндекс.Метрика powered by Sphinx


В Н И М А Н И Е
Сайт не распространяет и не хранит электронные версии произведений, а лишь бесплатно и без коммерческой выгоды (не требуя взамен платы,
SMS и т.д.) предоставляет доступ к создаваемому пользователями каталогу ссылок на торрент-файлы, которые содержат только списки хеш-сумм.
Убедительная просьба с жалобами обращаться напрямую к пользователю, разместившему торрент файл.

Вверх