Loading...
Error

Нескучные уроки для самых маленьких - Роберт Саакянц [2008 г., обучающее видео для детей, DVD5]

Статистика раздачи
Размер:  4,02 GB   |    Зарегистрирован:  9 лет 7 месяцев   |    Скачан:  39 раз

Полного источника не было: 8 месяцев

Сидов:  0  |  0 KB/s  ]   Личеров:  0  |  0 KB/s  ]

* - сиды/пиры с внешних источников

   
 
Автор Сообщение

МУХА~ Пол:Муж

11-Окт-2011 10:48

Нескучные уроки для самых маленьких - Роберт Саакянц

Год выпуска: 2008

Жанр: обучающее видео для детей

Страна: Россия

Режиссер: Роберт Саакянц

Качество видео: DVD5

Продолжительность: 6 х ~ 45 мин.
Видео: MPEG 2 DVD, 720x576, 8276 kbps
Аудио: русский, оригинал, AC3 5.1, 448 kbps
Занимательная химия - 42 мин.
Славный Зайчик допустил большую ошибку - вылил краску на скатерть! Попробовал отстирать, но ничего не получилось! И тогда его друг ученый Робот посоветовал отнести скатерть в Химчистку. И случилось чудо - от пятна не осталось и следа! Это так понравилось нашему Зайчику, что он решил всерьез заняться наукой Химией. И, как всегда, большую поддержку в этом ему оказали друзья - Филин и Робот!
_________
Физика для самых маленьких - 46 мин.
Если ваш ребенок спрашивает вас, почему снег тает и превращается в воду, а вода кипит и превращается в пар, значит, настало время познакомить его с нашим фильмом. "Физика для самых маленьких" - это та программа, которая поможет ему найти ответ на очень многие вопросы.
Зайчик и его новый друг Робот в легкой и увлекательной манере объяснят Вашему ребенку как устроено все в окружающем нас мире с точки зрения великой науки Физики. Кстати, советуем посмотреть фильм всей семьей, потому будет легче отвечать на детские "Почему?" и "Как?".
_________
Английский язык для малышей - 46 мин.
Все думают, что рыбы не умеют говорить!
Как же удивился наш друг Зайчик, когда узнал, что рыбы не только говорят, но даже собираются выучить английский язык. И пришлось нашему Зайчику надевать скафандр и спускаться на дно морское, чтобы преподать семье Налима урок английского языка.
Ребята! А чем мы хуже рыб? Может быть и мы вместе с нашими героями выучим английские буквы и некоторые слова! Согласны? Тогда начинаем! И еще, ребята, позовите с собой взрослых. Они не только помогут Вам во всем правильно разобраться, но и сами получат массу удовольствия от общения с нашими героями.
_________
Природоведение для самых маленьких - 45 мин.
Описание от производителя:
Много ли надо Вашему ребенку, чтобы всерьез увлечься научными знаниями?
Наверное, Вы скажите много. А вот нашему Зайчику понадобился всего лишь один незаурядный подарок - микроскоп - от его друга Филина, чтобы заняться изучением Природы и ее устройства.
Все мы знаем, что Атом - это неделимая частица. А в нашем фильме это еще и друг Зайчика, который познакомит его с микромиром. Атом расскажет, из чего состоит все вокруг, и чем отличается живая материя от неживой, и как растут растения! И многое другое ...
_________
География для самых маленьких - 45 мин.
Трое друзей - комета Тая, метеорит Дик и астероид Бас - любят путешествовать по Вселенной и им есть что рассказать не только о космосе, но и о нашей родной планете Земля.
В популярной, познавательной, иногда смешной форме Вы узнаете о том, как Земля вращается вокруг Солнца, как устроена Земля, что происходит у нее внутри и что ее окружает!
На многие вопросы по географии, которые может задать Ваш ребенок, легко найти ответ в этом фильме!
_________
Астрономия для самых маленьких - 45 мин.
Совсем недавно трое друзей - комета Тая, метеорит Дик и астероид Бас - прилетели на нашу родную планету Земля, чтобы познакомиться с ее природой и устройством. И вот уже житель Земли - наш любимый Зайчик - с такой же целью сам становится космонавтом и отправляется в бесконечные просторы Вселенной.
На своем суперсовременном космолете, оснащенном совершенным искусственным интеллектом, он облетает всю Солнечную систему и отправляется дальше.
За время экспедиции Зайчик высаживается на разных планетах, приближается к ярким манящим звездам и чуть-чуть не попадает в черную дыру!
Выпутаться из сложных ситуаций ему помогают Тая, Бас и Дик.
Наградой нашему Зайчику за полное опасностей и приключений путешествие становятся новые знания и новые друзья!
D:\ÌÓËÜÒÈÊÈ\neskuchnie_uroki\VIDEO_TS\VTS_01_1.VOB
General
Complete name : D:\ÌÓËÜÒÈÊÈ\neskuchnie_uroki\VIDEO_TS\VTS_01_1.VOB
Format : MPEG-PS
File size : 1 000 MiB
Duration : 24mn 31s
Overall bit rate : 5 701 Kbps
Writing library : (c) 1998-2006 Womble Multimedia, Inc. / MPEG Video Wizard (05/2006) / Aug 7 2006
Video #224
ID : 224 (0xE0)
Format : MPEG Video
Format version : Version 2
Format profile : Main@Main
Format settings, BVOP : Yes
Format settings, Matrix : Default
Format_Settings_GOP : M=3, N=15
Duration : 24mn 31s
Bit rate mode : Variable
Bit rate : 5 027 Kbps
Nominal bit rate : 8 276 Kbps
Width : 720 pixels
Height : 576 pixels
Display aspect ratio : 4:3
Frame rate : 25.000 fps
Standard : PAL
Resolution : 8 bits
Colorimetry : 4:2:0
Scan type : Interlaced
Scan order : Bottom Field First
Bits/(Pixel*Frame) : 0.485
Stream size : 882 MiB (88%)
Writing library : (c) 1998-2006 Womble Multimedia, Inc. / MPEG Video Wizard (05/2006) / Aug 7 2006
Audio #128
ID : 128 (0x80)
Format : AC-3
Format/Info : Audio Coding 3
Duration : 24mn 31s
Bit rate mode : Constant
Bit rate : 448 Kbps
Channel(s) : 6 channels
Channel positions : Front: L C R, Side: L R, LFE
Sampling rate : 48.0 KHz
Video delay : -256ms
Stream size : 78.6 MiB (8%)
pic pic pic pic pic
Для увеличения картинки щелкните мышкой по превью

Этот торрент недоступен для скачивания без регистрации, однако доступен по публичной magnet-ссылке (источники с публичных трекеров). Перед использованием ссылки прочтите, пожалуйста Пользовательское соглашение, а также как можно дольше оставайтесь на раздаче! Для того, чтобы скачать сам торрент-файл (который видит больше источников), а также для того, чтобы поблагодарить релизера, вам необходимо зарегистрироваться. Если регистрироваться лень - вы можете также попробовать скачать релиз по нашим партнерским ссылкам ниже. Кроме того, зарегистрированным пользователям не показывается всплывающая реклама при скачивании.

[underverse.su].t15841.torrent
Трекер: Зарегистрирован   [ 11.10.2011 10:48 ]  

Статус: проверено (by garry at 19.10.2011 05:53)
Поблагодарили: 2 человека
Тип торрента: публичный - доступные источники с открытых трекеров: 
Размер: 4,02 GB (занимает 0,92 DVDR, для записи нужно 1 болванка DVDR/RW)
 
 
Похожие темы
Форум Тема Автор Торрент Отв. Посл. сооб.
Архив (Другие игры для PC) Нескучные уроки: развиваем память, внимание, творческое мышление NMZ
0 | 0

1 | 2793

23

05.11.2011 14:45

01-Фев-2018 22:50

Топик был перенесен из форума Обучающее видео в форум Другое


garry
 

02-Фев-2018 17:29

Топик был перенесен из форума Другое в форум Другое HD DVD, Blu-Ray


garry
 

Яндекс.Метрика powered by Sphinx


В Н И М А Н И Е
Сайт не распространяет и не хранит электронные версии произведений, а лишь бесплатно и без коммерческой выгоды (не требуя взамен платы,
SMS и т.д.) предоставляет доступ к создаваемому пользователями каталогу ссылок на торрент-файлы, которые содержат только списки хеш-сумм.
Убедительная просьба с жалобами обращаться напрямую к пользователю, разместившему торрент файл.

Вверх