Loading...
Error

Академия «Амбрелла» / The Umbrella Academy / Сезон: 1 / Серии: 1-10 из 10 (Эндрю Бернштейн, Питер Хор, Эллен Кёрас) [2019, фэнтези, боевик, WEB-DL 1080p] Dub (Пифагор) + Original+ Sub (Rus/Eng)

Статистика раздачи
Размер:  20.09 GB   |    Зарегистрирован:  2 года 1 месяц   |    Скачан:  22 раза

Полного источника не было: 8 часов

Сидов:  0  |  0 KB/s  ]   Личеров:  0  |  0 KB/s  ]

* - сиды/пиры с внешних источников

   
 
Автор Сообщение

Konin Пол:Муж

31-Июл-2020 18:58

Академия «Амбрелла» / The Umbrella Academy

Год выпуска: 2019
Страна: США
Студия: Netflix, Dark Horse Entertainment
Жанр: фэнтези, боевик
Продолжительность: ~00:59:00 серия
Перевод: Профессиональный (дублированный) Пифагор по заказу Netflix
Режиссер:
Эндрю Бернштейн, Питер Хор, Эллен Кёрас
В ролях:
Эйдан Галлахер, Камерон Бриттон, Иден Кьюпид, Кэмерон Бродер, Итан Хванг, Dante Albidone, Том Хоппер, Дэвид Кастанеда, Роберт Шиэн, Эмми Рэвер-Лэмпман, Эллен Пейдж
О фильме:
Действие разворачивается в альтернативной вселенной. В середине 20-го века 43 женщины, которые до этого не были беременны, одновременно рожают младенцев, наделённых суперспособностями. Пришелец, скрывающийся под личиной сэра Реджинальда Харггривса, спасает семерых новорождённых и создаёт Академию «Амбрелла». Вместе они используют свои таланты для защиты Земли. Годы спустя, после распада Академии, ученики встречаются на похоронах Харггривса. Им предстоит вновь объединиться ради защиты человечества и выступить против одного из бывших соратников по Академии.

Качество: WEB-DL 1080p
Формат: MKV
Видео: 1920x1080 at 23.976 fps, MPEG-4 AVC, ~5000 kbps avg
Аудио#1: Russian: 48 kHz, Е-AC3, 3/2 (L,C,R,l,r) + LFE ch, ~640 kbps avg |Дубляж, Пифагор по заказу Netflix|
Аудио#2: English: 48 kHz, Е-AC3, 3/2 (L,C,R,l,r) + LFE ch, ~640 kbps avg
Субтитры: Russian (Forced, Full), English (Full, SDH)
Сериал основан на одноимённой серии комиксов (2007), созданной Джерардом Уэем, бывшим вокалистом рок-группы группы My Chemical Romance (2001-2013).
01. Мы видимся только на свадьбах и похоронах | We Only See Each Other at Weddings and Funerals
02. Беги, парень, беги | Run Boy Run
03. Очень обыкновенный | Extra Ordinary
04. Человек на Луне | Man on the Moon
05. Номер 5 | Number Five
06. День, которого не было | The Day That Wasn't
07. День, который был | The Day That Was
08. Я слышала сплетни | I Heard a Rumor
09. Перемены | Changes
10. Белая скрипка | The White Violin
General
Unique ID : 1216235218396822126920536071817399670 (0xEA3D06A5420C78F62D556EB0940D76)
Complete name : The.Umbrella.Academy.S01E01.We.Only.See.Each.Other.at.Weddings.and.Funerals.1080p.NF.WEB-DL.DDP5.1.x264-CasStudio.mkv
Format : Matroska
Format version : Version 4
File size : 2.40 GiB
Duration : 59 min 18 s
Overall bit rate mode : Variable
Overall bit rate : 5 800 kb/s
Encoded date : UTC 2019-02-15 08:33:38
Writing application : mkvmerge v30.1.0 ('Forever And More') 64-bit
Writing library : libebml v1.3.6 + libmatroska v1.4.9
Video
ID : 1
Format : AVC
Format/Info : Advanced Video Codec
Format profile : [email protected]
Format settings : CABAC / 3 Ref Frames
Format settings, CABAC : Yes
Format settings, Reference fra : 3 frames
Codec ID : V_MPEG4/ISO/AVC
Duration : 59 min 17 s
Bit rate mode : Variable
Bit rate : 4 640 kb/s
Maximum bit rate : 6 960 kb/s
Width : 1 920 pixels
Height : 1 080 pixels
Display aspect ratio : 16:9
Frame rate mode : Constant
Frame rate : 23.976 (24000/1001) FPS
Color space : YUV
Chroma subsampling : 4:2:0
Bit depth : 8 bits
Scan type : Progressive
Bits/(Pixel*Frame) : 0.093
Stream size : 1.87 GiB (78%)
Writing library : x264 core 148 r2715 7e75228
Encoding settings : cabac=1 / ref=3 / deblock=1:0:0 / analyse=0x1:0x111 / me=umh / subme=10 / psy=1 / psy_rd=1.00:0.00 / mixed_ref=1 / me_range=24 / chroma_me=1 / trellis=2 / 8x8dct=0 / cqm=0 / deadzone=21,11 / fast_pskip=1 / chroma_qp_offset=-2 / threads=8 / lookahead_threads=1 / sliced_threads=0 / nr=0 / decimate=1 / interlaced=0 / bluray_compat=0 / stitchable=1 / constrained_intra=0 / bframes=2 / b_pyramid=0 / b_adapt=2 / b_bias=0 / direct=3 / weightb=1 / open_gop=0 / weightp=2 / keyint=48 / keyint_min=25 / scenecut=0 / intra_refresh=0 / rc_lookahead=48 / rc=2pass / mbtree=1 / bitrate=4640 / ratetol=1.0 / qcomp=0.50 / qpmin=6 / qpmax=51 / qpstep=4 / cplxblur=20.0 / qblur=0.5 / vbv_maxrate=6960 / vbv_bufsize=9280 / nal_hrd=vbr / filler=0 / ip_ratio=1.40 / aq=1:1.00
Default : Yes
Forced : No
Audio #1
ID : 2
Format : E-AC-3
Format/Info : Enhanced AC-3
Commercial name : Dolby Digital Plus
Codec ID : A_EAC3
Duration : 59 min 18 s
Bit rate mode : Constant
Bit rate : 640 kb/s
Channel(s) : 6 channels
Channel layout : L R C LFE Ls Rs
Sampling rate : 48.0 kHz
Frame rate : 31.250 FPS (1536 SPF)
Compression mode : Lossy
Stream size : 271 MiB (11%)
Language : Russian
Service kind : Complete Main
Default : Yes
Forced : No
Audio #2
ID : 3
Format : E-AC-3
Format/Info : Enhanced AC-3
Commercial name : Dolby Digital Plus
Codec ID : A_EAC3
Duration : 59 min 18 s
Bit rate mode : Constant
Bit rate : 640 kb/s
Channel(s) : 6 channels
Channel layout : L R C LFE Ls Rs
Sampling rate : 48.0 kHz
Frame rate : 31.250 FPS (1536 SPF)
Compression mode : Lossy
Stream size : 271 MiB (11%)
Title : English
Language : English
Service kind : Complete Main
Default : No
Forced : No
Text #1
ID : 4
Format : UTF-8
Codec ID : S_TEXT/UTF8
Codec ID/Info : UTF-8 Plain Text
Duration : 54 min 37 s
Bit rate : 7 b/s
Count of elements : 66
Stream size : 2.89 KiB (0%)
Title : Forced
Language : Russian
Default : Yes
Forced : Yes
Text #2
ID : 5
Format : UTF-8
Codec ID : S_TEXT/UTF8
Codec ID/Info : UTF-8 Plain Text
Duration : 57 min 0 s
Bit rate : 60 b/s
Count of elements : 758
Stream size : 25.4 KiB (0%)
Title : SDH
Language : English
Default : No
Forced : No
Text #3
ID : 6
Format : UTF-8
Codec ID : S_TEXT/UTF8
Codec ID/Info : UTF-8 Plain Text
Duration : 57 min 12 s
Bit rate : 75 b/s
Count of elements : 583
Stream size : 31.6 KiB (0%)
Language : Arabic
Default : No
Forced : No
Text #4
ID : 7
Format : UTF-8
Codec ID : S_TEXT/UTF8
Codec ID/Info : UTF-8 Plain Text
Duration : 57 min 12 s
Bit rate : 43 b/s
Count of elements : 563
Stream size : 18.3 KiB (0%)
Language : Danish
Default : No
Forced : No
Text #5
ID : 8
Format : UTF-8
Codec ID : S_TEXT/UTF8
Codec ID/Info : UTF-8 Plain Text
Duration : 57 min 12 s
Bit rate : 46 b/s
Count of elements : 566
Stream size : 19.6 KiB (0%)
Language : German
Default : No
Forced : No
Text #6
ID : 9
Format : UTF-8
Codec ID : S_TEXT/UTF8
Codec ID/Info : UTF-8 Plain Text
Duration : 57 min 12 s
Bit rate : 67 b/s
Count of elements : 569
Stream size : 28.2 KiB (0%)
Language : Greek
Default : No
Forced : No
Text #7
ID : 10
Format : UTF-8
Codec ID : S_TEXT/UTF8
Codec ID/Info : UTF-8 Plain Text
Duration : 57 min 12 s
Bit rate : 43 b/s
Count of elements : 539
Stream size : 18.0 KiB (0%)
Language : Spanish
Default : No
Forced : No
Text #8
ID : 11
Format : UTF-8
Codec ID : S_TEXT/UTF8
Codec ID/Info : UTF-8 Plain Text
Duration : 57 min 12 s
Bit rate : 42 b/s
Count of elements : 572
Stream size : 17.8 KiB (0%)
Title : European
Language : Spanish
Default : No
Forced : No
Text #9
ID : 12
Format : UTF-8
Codec ID : S_TEXT/UTF8
Codec ID/Info : UTF-8 Plain Text
Duration : 57 min 12 s
Bit rate : 37 b/s
Count of elements : 483
Stream size : 15.6 KiB (0%)
Language : Finnish
Default : No
Forced : No
Text #10
ID : 13
Format : UTF-8
Codec ID : S_TEXT/UTF8
Codec ID/Info : UTF-8 Plain Text
Duration : 57 min 12 s
Bit rate : 40 b/s
Count of elements : 538
Stream size : 17.0 KiB (0%)
Language : French
Default : No
Forced : No
Text #11
ID : 14
Format : UTF-8
Codec ID : S_TEXT/UTF8
Codec ID/Info : UTF-8 Plain Text
Duration : 57 min 12 s
Bit rate : 64 b/s
Count of elements : 559
Stream size : 26.9 KiB (0%)
Language : Hebrew
Default : No
Forced : No
Text #12
ID : 15
Format : UTF-8
Codec ID : S_TEXT/UTF8
Codec ID/Info : UTF-8 Plain Text
Duration : 57 min 12 s
Bit rate : 43 b/s
Count of elements : 574
Stream size : 18.2 KiB (0%)
Language : Indonesian
Default : No
Forced : No
Text #13
ID : 16
Format : UTF-8
Codec ID : S_TEXT/UTF8
Codec ID/Info : UTF-8 Plain Text
Duration : 57 min 12 s
Bit rate : 43 b/s
Count of elements : 561
Stream size : 18.4 KiB (0%)
Language : Italian
Default : No
Forced : No
Text #14
ID : 17
Format : UTF-8
Codec ID : S_TEXT/UTF8
Codec ID/Info : UTF-8 Plain Text
Duration : 57 min 12 s
Bit rate : 45 b/s
Count of elements : 607
Stream size : 18.9 KiB (0%)
Language : Japanese
Default : No
Forced : No
Text #15
ID : 18
Format : UTF-8
Codec ID : S_TEXT/UTF8
Codec ID/Info : UTF-8 Plain Text
Duration : 57 min 12 s
Bit rate : 49 b/s
Count of elements : 609
Stream size : 20.7 KiB (0%)
Language : Korean
Default : No
Forced : No
Text #16
ID : 19
Format : UTF-8
Codec ID : S_TEXT/UTF8
Codec ID/Info : UTF-8 Plain Text
Duration : 57 min 12 s
Bit rate : 41 b/s
Count of elements : 535
Stream size : 17.3 KiB (0%)
Language : Norwegian Bokmal
Default : No
Forced : No
Text #17
ID : 20
Format : UTF-8
Codec ID : S_TEXT/UTF8
Codec ID/Info : UTF-8 Plain Text
Duration : 57 min 12 s
Bit rate : 39 b/s
Count of elements : 544
Stream size : 16.6 KiB (0%)
Language : Dutch
Default : No
Forced : No
Text #18
ID : 21
Format : UTF-8
Codec ID : S_TEXT/UTF8
Codec ID/Info : UTF-8 Plain Text
Duration : 57 min 12 s
Bit rate : 37 b/s
Count of elements : 512
Stream size : 15.6 KiB (0%)
Language : Polish
Default : No
Forced : No
Text #19
ID : 22
Format : UTF-8
Codec ID : S_TEXT/UTF8
Codec ID/Info : UTF-8 Plain Text
Duration : 57 min 12 s
Bit rate : 44 b/s
Count of elements : 552
Stream size : 18.8 KiB (0%)
Language : Portuguese
Default : No
Forced : No
Text #20
ID : 23
Format : UTF-8
Codec ID : S_TEXT/UTF8
Codec ID/Info : UTF-8 Plain Text
Duration : 57 min 12 s
Bit rate : 42 b/s
Count of elements : 539
Stream size : 17.8 KiB (0%)
Title : Brazilian
Language : Portuguese
Default : No
Forced : No
Text #21
ID : 24
Format : UTF-8
Codec ID : S_TEXT/UTF8
Codec ID/Info : UTF-8 Plain Text
Duration : 57 min 1 s
Bit rate : 49 b/s
Count of elements : 567
Stream size : 20.5 KiB (0%)
Language : Romanian
Default : No
Forced : No
Text #22
ID : 25
Format : UTF-8
Codec ID : S_TEXT/UTF8
Codec ID/Info : UTF-8 Plain Text
Duration : 57 min 11 s
Bit rate : 72 b/s
Count of elements : 574
Stream size : 30.3 KiB (0%)
Language : Russian
Default : No
Forced : No
Text #23
ID : 26
Format : UTF-8
Codec ID : S_TEXT/UTF8
Codec ID/Info : UTF-8 Plain Text
Duration : 57 min 12 s
Bit rate : 40 b/s
Count of elements : 542
Stream size : 17.0 KiB (0%)
Language : Swedish
Default : No
Forced : No
Text #24
ID : 27
Format : UTF-8
Codec ID : S_TEXT/UTF8
Codec ID/Info : UTF-8 Plain Text
Duration : 57 min 1 s
Bit rate : 118 b/s
Count of elements : 574
Stream size : 49.3 KiB (0%)
Language : Thai
Default : No
Forced : No
Text #25
ID : 28
Format : UTF-8
Codec ID : S_TEXT/UTF8
Codec ID/Info : UTF-8 Plain Text
Duration : 57 min 12 s
Bit rate : 45 b/s
Count of elements : 571
Stream size : 18.9 KiB (0%)
Language : Turkish
Default : No
Forced : No
Text #26
ID : 29
Format : UTF-8
Codec ID : S_TEXT/UTF8
Codec ID/Info : UTF-8 Plain Text
Duration : 57 min 12 s
Bit rate : 42 b/s
Count of elements : 563
Stream size : 17.9 KiB (0%)
Title : Simplified
Language : Chinese
Default : No
Forced : No
Text #27
ID : 30
Format : UTF-8
Codec ID : S_TEXT/UTF8
Codec ID/Info : UTF-8 Plain Text
Duration : 57 min 12 s
Bit rate : 41 b/s
Count of elements : 549
Stream size : 17.5 KiB (0%)
Title : Traditional
Language : Chinese
Default : No
Forced : No
***Примечание: Без рекламы
***Исходник: The.Umbrella.Academy.S01.1080p.NF.WEBRip.DDP5.1.x264-NTb
***Релиз: [email protected]

Этот торрент недоступен для скачивания без регистрации, однако доступен по публичной magnet-ссылке (источники с публичных трекеров). Перед использованием ссылки прочтите, пожалуйста Пользовательское соглашение, а также как можно дольше оставайтесь на раздаче! Для того, чтобы скачать сам торрент-файл (который видит больше источников), а также для того, чтобы поблагодарить релизера, вам необходимо зарегистрироваться. Если регистрироваться лень - вы можете также попробовать скачать релиз по нашим партнерским ссылкам ниже. Кроме того, зарегистрированным пользователям не показывается всплывающая реклама при скачивании.

[underver.se].t175810.torrent
Трекер: Зарегистрирован   [ 31.07.2020 18:58 ]  
Статус: проверено (by makkol at 31.07.2020 21:25)
Поблагодарили: пока никто не поблагодарил...
Тип торрента: публичный - доступные источники с открытых трекеров: 
Размер: 20.09 GB (занимает 4.59 DVDR, для записи нужно 5 болванок DVDR/RW)
 
 

Яндекс.Метрика powered by Sphinx


В Н И М А Н И Е
Сайт не распространяет и не хранит электронные версии произведений, а лишь бесплатно и без коммерческой выгоды (не требуя взамен платы,
SMS и т.д.) предоставляет доступ к создаваемому пользователями каталогу ссылок на торрент-файлы, которые содержат только списки хеш-сумм.
Убедительная просьба с жалобами обращаться напрямую к пользователю, разместившему торрент файл.

Вверх