Loading...
Error

Капитан Голливуд (Евгений Татаров) [2019 г., драма, детектив, WEBRip]

Статистика раздачи
Размер:  1,46 GB   |    Зарегистрирован:  12 дней   |    Скачан:  13 раз
Сидов:  2  |  42 KB/s  ]   Личеров:  0  |  0 KB/s  ]

* - сиды/пиры с внешних источников

   
 
Автор Сообщение

makkol Пол:Муж

01-Авг-2020 15:30

Капитан Голливуд


Год выпуска: 2019
Жанр: драма, детектив
Производство: Россия [ООО «Кинопрограмма ХХI век»]
Режиссер: Евгений Татаров
В ролях: Евгений Шириков, Антонина Дивина, Алексей Нестеренко, Владимир Роганов, Артём Мельничук, Анастасия Ярёменко, Алёна Козырева, Ольга Калмыкова, Жан Селезенев, Юрий Пимкин, Эдуард Безродный, Светлана Павлова, Митя Махонин, Глеб Козляев, Владимир Малинин (II), Алан Догузов, Пётр Котров, Евгений Чернорай, Нариман Аметов, Юлия Слепнева, Евгений Овсянников, Илья Синькевич, Эшреф Ягьяев, Ирина Демидкина, Арсен Джемилёв, Виктор Куклин, Николай Филиппов (II), Алим Аблаев, Бахтияр Алиев, Николай Коваленко (II), Татьяна Стасюк, Татьяна Корниенко, Эльвира Мустафаева, Екатерина Александрина, Кирилл Ильин, Эрнест Пртыхов, Сейран Пртыхов, Анастасия Жаднова, Марлен Аджарипов
Сюжет фильма:
Летом 1999 года в одном из городов на юге России происходит террористический акт – взрыв жилого дома. Расследование этого дела возглавляет оперативный сотрудник ФСБ – капитан Андрей Верещагин, по прозвищу «Капитан Голливуд».

Качество видео: WEBRip

Продолжительность: 01:40:09
Формат: AVI
Видео: XviD, 720x304 (2.35:1), 25.000 fps, 1660 kbps
Аудио: русский, оригинал, AC3 5.1, 48 kHz, 384 kbps

Код:

Формат                                   : AVI
Формат/Информация                        : Audio Video Interleave
Размер файла                             : 1,46 Гбайт
Продолжительность                        : 1 ч. 40 м.
Общий поток                              : 2 084 Кбит/сек
Название фильма                          : Капитан Голливуд_2019_WEBRip
Программа кодирования                    : VirtualDubMod 1.5.10.3 | www.virtualdub-fr.org || (build 2550/release)
Авторское право                          : порошков

Видео
Идентификатор                            : 0
Формат                                   : MPEG-4 Visual
Профиль формата                          : Advanced Simple@L5
Настройки формата                        : BVOP1 / Custom Matrix
Параметр BVOP формата                    : 1
Параметр QPel формата                    : Нет
Параметр GMC формата                     : Без точки перехода
Параметр матрицы формата                 : Выборочная
Идентификатор кодека                     : XVID
Идентификатор кодека/Подсказка           : XviD
Продолжительность                        : 1 ч. 40 м.
Битрейт                                  : 1 690 Кбит/сек
Ширина                                   : 720 пикселей
Высота                                   : 304 пикселя
Соотношение сторон                       : 2,35:1
Частота кадров                           : 25,000 кадров/сек
Цветовое пространство                    : YUV
Субдискретизация насыщенности            : 4:2:0
Битовая глубина                          : 8 бит
Тип развёртки                            : Прогрессивная
Метод сжатия                             : С потерями
Бит/(Пиксели*Кадры)                      : 0.309
Размер потока                            : 1,18 Гбайт (81%)
Библиотека кодирования                   : XviD 73

Аудио
Идентификатор                            : 1
Формат                                   : AC-3
Формат/Информация                        : Audio Coding 3
Коммерческое название                    : Dolby Digital
Идентификатор кодека                     : 2000
Продолжительность                        : 1 ч. 40 м.
Вид битрейта                             : Постоянный
Битрейт                                  : 384 Кбит/сек
Каналы                                   : 6 каналов
Channel layout                           : L R C LFE Ls Rs
Частота                                  : 48,0 КГц
Частота кадров                           : 31,250 кадров/сек (1536 SPF)
Метод сжатия                             : С потерями
Размер потока                            : 275 Мбайт (18%)
Выравнивание                             : Разделение по промежуткам
Продолжительность промежутка             : 40  мс. (1,00 видеокадр)
Время предзагрузки промежутка            : 500  мс.
Service kind                             : Complete Main

Этот торрент недоступен для скачивания без регистрации, однако доступен по публичной magnet-ссылке (источники с публичных трекеров). Перед использованием ссылки прочтите, пожалуйста Пользовательское соглашение, а также как можно дольше оставайтесь на раздаче! Для того, чтобы скачать сам торрент-файл (который видит больше источников), а также для того, чтобы поблагодарить релизера, вам необходимо зарегистрироваться. Если регистрироваться лень - вы можете также попробовать скачать релиз по нашим партнерским ссылкам ниже. Кроме того, зарегистрированным пользователям не показывается всплывающая реклама при скачивании.

[underver.se].t175856.torrent
Трекер: Зарегистрирован   [ 01.08.2020 15:30 ]  

Статус: проверено (by makkol at 01.08.2020 15:30)
Поблагодарили: пока никто не поблагодарил...
Тип торрента: публичный - доступные источники с открытых трекеров: 
Размер: 1,46 GB (занимает 1/3 DVDR, для записи нужно 1 болванка DVDR/RW)
 
 
Похожие темы
Форум Тема Автор Торрент Отв. Посл. сооб.
Наше кино [HDDVDRip / BDRip / WEB-DL / HDTV 1080/720р] Капитан Голливуд (Евгений Татаров) [2019 г., драма, детектив, WEBRip 720p] makkol
1 | 0

0 | 198

4

01.08.2020 15:34

Наше кино [HDDVDRip / BDRip / WEB-DL / HDTV 1080/720р] Капитан Голливуд (Евгений Татаров) [2019 г., драма, детектив, WEBRip 1080p] makkol
180 | 7

0 | 273

16

01.08.2020 15:39


Яндекс.Метрика powered by Sphinx


В Н И М А Н И Е
Сайт не распространяет и не хранит электронные версии произведений, а лишь бесплатно и без коммерческой выгоды (не требуя взамен платы,
SMS и т.д.) предоставляет доступ к создаваемому пользователями каталогу ссылок на торрент-файлы, которые содержат только списки хеш-сумм.
Убедительная просьба с жалобами обращаться напрямую к пользователю, разместившему торрент файл.

Вверх