Loading...
Error

(Retro) Клавдия Шульженко - Grand Collection (2005) [FLAC (Tracks+.CUE), lossless]

Статистика раздачи
Размер:  191 MB   |    Зарегистрирован:  9 лет 4 месяца   |    Скачан:  14 раз

Полного источника не было: 15 дней

Сидов:  0  |  0 KB/s  ]   Личеров:  0  |  0 KB/s  ]

* - сиды/пиры с внешних источников

   
 
Автор Сообщение

garry Пол:Муж

04-Ноя-2011 18:36

Клавдия Шульженко - Grand Collection

Жанр: Retro
Год выпуска: 2005
Производитель диска: Мороз Рекордз
Аудиокодек: FLAC
Тип рипа: Tracks+.CUE
Битрейт аудио: lossless
Продолжительность: 01:03:09

Треклист:

01. О любви не говори
02. Андрюша
03. Синий платочек
04. Давай закурим
05. Челита
06. Старинный вальс
07. Дядя Ваня
08. Где же вы теперь, друзья-однополчане
09. Девушка милая
10. Голубка
11. Лирическая песня из к-ма 'Сердца четырех'
12. Ягода
13. Прощальный луч
14. Шёл солдат из дальнего края
15. Говорите мне о любви
16. Мой старый парк
17. Партизаны
18. Встречи
19. Вальс о вальсе
20. Приходи на свидание
21. Сколько Вам лет
Exact Audio Copy V0.99 prebeta 5 from 4. May 2009

EAC extraction logfile from 30. January 2011, 18:34

Клавдия Шульженко / Grand Collection

Used drive : HL-DT-STDVDRAM GSA-H10N Adapter: 1 ID: 0

Read mode : Secure
Utilize accurate stream : Yes
Defeat audio cache : Yes
Make use of C2 pointers : No

Read offset correction : 667
Overread into Lead-In and Lead-Out : No
Fill up missing offset samples with silence : Yes
Delete leading and trailing silent blocks : No
Null samples used in CRC calculations : Yes
Used interface : Native Win32 interface for Win NT & 2000
Gap handling : Appended to previous track

Used output format : User Defined Encoder
Selected bitrate : 768 kBit/s
Quality : High
Add ID3 tag : No
Command line compressor : C:\Program Files\Exact Audio Copy\FLAC\FLAC.EXE
Additional command line options : -8 -V -T "ARTIST=%a" -T "TITLE=%t" -T "ALBUM=%g" -T "DATE=%y" -T "TRACKNUMBER=%n" -T "GENRE=%m" -T "COMMENT=EAC FLAC -8" %s

TOC of the extracted CD

Track | Start | Length | Start sector | End sector
---------------------------------------------------------
1 | 0:00.00 | 2:39.73 | 0 | 11997
2 | 2:39.73 | 2:41.52 | 11998 | 24124
3 | 5:21.50 | 3:34.30 | 24125 | 40204
4 | 8:56.05 | 2:35.67 | 40205 | 51896
5 | 11:31.72 | 2:51.62 | 51897 | 64783
6 | 14:23.59 | 2:41.35 | 64784 | 76893
7 | 17:05.19 | 2:40.47 | 76894 | 88940
8 | 19:45.66 | 3:01.23 | 88941 | 102538
9 | 22:47.14 | 2:51.55 | 102539 | 115418
10 | 25:38.69 | 3:53.62 | 115419 | 132955
11 | 29:32.56 | 3:00.58 | 132956 | 146513
12 | 32:33.39 | 2:00.10 | 146514 | 155523
13 | 34:33.49 | 4:03.49 | 155524 | 173797
14 | 38:37.23 | 3:09.44 | 173798 | 188016
15 | 41:46.67 | 3:00.02 | 188017 | 201518
16 | 44:46.69 | 4:34.66 | 201519 | 222134
17 | 49:21.60 | 3:00.05 | 222135 | 235639
18 | 52:21.65 | 3:01.53 | 235640 | 249267
19 | 55:23.43 | 4:02.06 | 249268 | 267423
20 | 59:25.49 | 1:54.36 | 267424 | 276009
21 | 61:20.10 | 2:00.68 | 276010 | 285077

Track 1

Filename C:\Documents and Settings\gari\Мои документы\OutputMP3\01. О любви не говори.wav

Pre-gap length 0:00:02.00

Peak level 54.5 %
Track quality 100.0 %
Test CRC EFEA8F2E
Copy CRC EFEA8F2E
Copy OK

Track 2

Filename C:\Documents and Settings\gari\Мои документы\OutputMP3\02. Андрюша.wav

Peak level 45.9 %
Track quality 99.9 %
Test CRC 363A0E2A
Copy CRC 363A0E2A
Copy OK

Track 3

Filename C:\Documents and Settings\gari\Мои документы\OutputMP3\03. Синий платочек.wav

Peak level 43.2 %
Track quality 100.0 %
Test CRC 7E844BF0
Copy CRC 7E844BF0
Copy OK

Track 4

Filename C:\Documents and Settings\gari\Мои документы\OutputMP3\04. Давай закурим.wav

Peak level 54.0 %
Track quality 100.0 %
Test CRC 3D007B8F
Copy CRC 3D007B8F
Copy OK

Track 5

Filename C:\Documents and Settings\gari\Мои документы\OutputMP3\05. Челита.wav

Peak level 45.8 %
Track quality 100.0 %
Test CRC 6C9AC52A
Copy CRC 6C9AC52A
Copy OK

Track 6

Filename C:\Documents and Settings\gari\Мои документы\OutputMP3\06. Старинный вальс.wav

Peak level 55.7 %
Track quality 100.0 %
Test CRC 4410B167
Copy CRC 4410B167
Copy OK

Track 7

Filename C:\Documents and Settings\gari\Мои документы\OutputMP3\07. Дядя Ваня.wav

Peak level 49.2 %
Track quality 100.0 %
Test CRC EAD32CD9
Copy CRC EAD32CD9
Copy OK

Track 8

Filename C:\Documents and Settings\gari\Мои документы\OutputMP3\08. Где же вы теперь, друзья-однополчане.wav

Peak level 57.6 %
Track quality 99.9 %
Test CRC 98B874A6
Copy CRC 98B874A6
Copy OK

Track 9

Filename C:\Documents and Settings\gari\Мои документы\OutputMP3\09. Девушка милая.wav

Peak level 56.6 %
Track quality 100.0 %
Test CRC 235D5FD6
Copy CRC 235D5FD6
Copy OK

Track 10

Filename C:\Documents and Settings\gari\Мои документы\OutputMP3\10. Голубка.wav

Peak level 49.2 %
Track quality 100.0 %
Test CRC DAD0FC7C
Copy CRC DAD0FC7C
Copy OK

Track 11

Filename C:\Documents and Settings\gari\Мои документы\OutputMP3\11. Лирическая песня из к-ма 'Сердца четырех'.wav

Peak level 53.2 %
Track quality 100.0 %
Test CRC E370F39D
Copy CRC E370F39D
Copy OK

Track 12

Filename C:\Documents and Settings\gari\Мои документы\OutputMP3\12. Ягода.wav

Peak level 59.7 %
Track quality 100.0 %
Test CRC 408F023D
Copy CRC 408F023D
Copy OK

Track 13

Filename C:\Documents and Settings\gari\Мои документы\OutputMP3\13. Прощальный луч.wav

Peak level 49.6 %
Track quality 100.0 %
Test CRC 1EE2892E
Copy CRC 1EE2892E
Copy OK

Track 14

Filename C:\Documents and Settings\gari\Мои документы\OutputMP3\14. Шёл солдат из дальнего края.wav

Peak level 59.7 %
Track quality 99.9 %
Test CRC D3966092
Copy CRC D3966092
Copy OK

Track 15

Filename C:\Documents and Settings\gari\Мои документы\OutputMP3\15. Говорите мне о любви.wav

Peak level 56.2 %
Track quality 100.0 %
Test CRC 4639FCD5
Copy CRC 4639FCD5
Copy OK

Track 16

Filename C:\Documents and Settings\gari\Мои документы\OutputMP3\16. Мой старый парк.wav

Peak level 44.9 %
Track quality 100.0 %
Test CRC 938C0C94
Copy CRC 938C0C94
Copy OK

Track 17

Filename C:\Documents and Settings\gari\Мои документы\OutputMP3\17. Партизаны.wav

Peak level 59.7 %
Track quality 100.0 %
Test CRC 64C17AFA
Copy CRC 64C17AFA
Copy OK

Track 18

Filename C:\Documents and Settings\gari\Мои документы\OutputMP3\18. Встречи.wav

Peak level 56.2 %
Track quality 100.0 %
Test CRC 47FD1CB1
Copy CRC 47FD1CB1
Copy OK

Track 19

Filename C:\Documents and Settings\gari\Мои документы\OutputMP3\19. Вальс о вальсе.wav

Peak level 53.6 %
Track quality 99.9 %
Test CRC BF5DC7A2
Copy CRC BF5DC7A2
Copy OK

Track 20

Filename C:\Documents and Settings\gari\Мои документы\OutputMP3\20. Приходи на свидание.wav

Peak level 53.7 %
Track quality 100.0 %
Test CRC DDF12D95
Copy CRC DDF12D95
Copy OK

Track 21

Filename C:\Documents and Settings\gari\Мои документы\OutputMP3\21. Сколько Вам лет.wav

Peak level 58.7 %
Track quality 99.9 %
Test CRC 8C030192
Copy CRC 8C030192
Copy OK

No errors occurred

End of status report

Этот торрент недоступен для скачивания без регистрации, однако доступен по публичной magnet-ссылке (источники с публичных трекеров). Перед использованием ссылки прочтите, пожалуйста Пользовательское соглашение, а также как можно дольше оставайтесь на раздаче! Для того, чтобы скачать сам торрент-файл (который видит больше источников), а также для того, чтобы поблагодарить релизера, вам необходимо зарегистрироваться. Если регистрироваться лень - вы можете также попробовать скачать релиз по нашим партнерским ссылкам ниже. Кроме того, зарегистрированным пользователям не показывается всплывающая реклама при скачивании.

[underverse.su].t16063.torrent
Трекер: Зарегистрирован   [ 04.11.2011 18:36 ]  

Статус: проверено (by garry at 04.11.2011 18:39)
Поблагодарили: 1 человек
Тип торрента: публичный - доступные источники с открытых трекеров: 
Размер: 191 MB (занимает 0,04 DVDR, для записи нужно 1 болванка DVDR/RW)
 
 

Яндекс.Метрика powered by Sphinx


В Н И М А Н И Е
Сайт не распространяет и не хранит электронные версии произведений, а лишь бесплатно и без коммерческой выгоды (не требуя взамен платы,
SMS и т.д.) предоставляет доступ к создаваемому пользователями каталогу ссылок на торрент-файлы, которые содержат только списки хеш-сумм.
Убедительная просьба с жалобами обращаться напрямую к пользователю, разместившему торрент файл.

Вверх