Loading...
Error

(Retro) Леонид Утесов - Grand Collection (2004) [FLAC (Tracks+.CUE), lossless]

Статистика раздачи
Размер:  335 MB   |    Зарегистрирован:  9 лет 4 месяца   |    Скачан:  35 раз

Полного источника не было: 4 дня

Сидов:  0  |  0 KB/s  ]   Личеров:  0  |  0 KB/s  ]

* - сиды/пиры с внешних источников

   
 
Автор Сообщение

garry Пол:Муж

04-Ноя-2011 18:50

Леонид Утесов - Grand Collection

Жанр: Retro
Год выпуска: 2004
Производитель диска: Квадро-Диск
Аудиокодек: FLAC
Тип рипа: Tracks+.CUE
Битрейт аудио: lossless
Продолжительность: 01:14:50

Треклист
01. Сердце
02. Марш веселых ребят
03. Му-му
04. Пароход
05. Прекрасная маркиза
06. Песня извозчика
07. Лейся песня на просторе
08. Дорога на Берлин
09. Случайный вальс
10. Бомбардировщики
11. Барон фон дер Пшик
12. Солдатский вальс
13. Если любишь, найди
14. Тайна
15. Лунная рапсодия
16. Парень кудрявый
17. Дороги мои москвичи
18. Утро и вечер
19. Пара гнедых
20. Раскинулось море широко
21. Мишка-одессит
22. С одесского кичмана
23. Бублички
24. Гоп со смыком
25. Тюх! Тюх!
Exact Audio Copy V0.99 prebeta 5 from 4. May 2009

EAC extraction logfile from 1. February 2011, 21:11

Леонид Утесов / Grand Collection

Used drive : HL-DT-STDVDRAM GSA-H10N Adapter: 1 ID: 0

Read mode : Secure
Utilize accurate stream : Yes
Defeat audio cache : Yes
Make use of C2 pointers : No

Read offset correction : 667
Overread into Lead-In and Lead-Out : No
Fill up missing offset samples with silence : Yes
Delete leading and trailing silent blocks : No
Null samples used in CRC calculations : Yes
Used interface : Native Win32 interface for Win NT & 2000
Gap handling : Appended to previous track

Used output format : User Defined Encoder
Selected bitrate : 768 kBit/s
Quality : High
Add ID3 tag : No
Command line compressor : C:\Program Files\Exact Audio Copy\FLAC\FLAC.EXE
Additional command line options : -8 -V -T "ARTIST=%a" -T "TITLE=%t" -T "ALBUM=%g" -T "DATE=%y" -T "TRACKNUMBER=%n" -T "GENRE=%m" -T "COMMENT=EAC FLAC -8" %s

TOC of the extracted CD

Track | Start | Length | Start sector | End sector
---------------------------------------------------------
1 | 0:00.00 | 3:22.74 | 0 | 15223
2 | 3:22.74 | 2:27.66 | 15224 | 26314
3 | 5:50.65 | 2:28.50 | 26315 | 37464
4 | 8:19.40 | 2:53.16 | 37465 | 50455
5 | 11:12.56 | 2:43.19 | 50456 | 62699
6 | 13:56.00 | 3:04.04 | 62700 | 76503
7 | 17:00.04 | 3:00.52 | 76504 | 90055
8 | 20:00.56 | 2:36.32 | 90056 | 101787
9 | 22:37.13 | 3:00.69 | 101788 | 115356
10 | 25:38.07 | 3:21.50 | 115357 | 130481
11 | 28:59.57 | 2:41.57 | 130482 | 142613
12 | 31:41.39 | 2:53.36 | 142614 | 155624
13 | 34:35.00 | 3:01.05 | 155625 | 169204
14 | 37:36.05 | 3:06.66 | 169205 | 183220
15 | 40:42.71 | 3:14.21 | 183221 | 197791
16 | 43:57.17 | 3:05.72 | 197792 | 211738
17 | 47:03.14 | 2:58.03 | 211739 | 225091
18 | 50:01.17 | 3:02.01 | 225092 | 238742
19 | 53:03.18 | 3:12.26 | 238743 | 253168
20 | 56:15.44 | 3:09.71 | 253169 | 267414
21 | 59:25.40 | 6:11.11 | 267415 | 295250
22 | 65:36.51 | 2:44.23 | 295251 | 307573
23 | 68:20.74 | 1:55.59 | 307574 | 316257
24 | 70:16.58 | 3:04.13 | 316258 | 330070
25 | 73:20.71 | 1:41.69 | 330071 | 337714

Track 1

Filename C:\Documents and Settings\gari\Мои документы\OutputMP3\01. Сердце.wav

Pre-gap length 0:00:02.00

Peak level 98.8 %
Track quality 100.0 %
Test CRC 5E1F77B8
Copy CRC 5E1F77B8
Copy OK

Track 2

Filename C:\Documents and Settings\gari\Мои документы\OutputMP3\02. Марш веселых ребят.wav

Pre-gap length 0:00:02.00

Peak level 98.8 %
Track quality 100.0 %
Test CRC A6154FA1
Copy CRC A6154FA1
Copy OK

Track 3

Filename C:\Documents and Settings\gari\Мои документы\OutputMP3\03. Му-му.wav

Pre-gap length 0:00:02.00

Peak level 94.4 %
Track quality 100.0 %
Test CRC 5D3D0442
Copy CRC 5D3D0442
Copy OK

Track 4

Filename C:\Documents and Settings\gari\Мои документы\OutputMP3\04. Пароход.wav

Pre-gap length 0:00:02.00

Peak level 98.8 %
Track quality 100.0 %
Test CRC 431B2DDC
Copy CRC 431B2DDC
Copy OK

Track 5

Filename C:\Documents and Settings\gari\Мои документы\OutputMP3\05. Прекрасная маркиза.wav

Pre-gap length 0:00:02.00

Peak level 97.8 %
Track quality 100.0 %
Test CRC DB777D00
Copy CRC DB777D00
Copy OK

Track 6

Filename C:\Documents and Settings\gari\Мои документы\OutputMP3\06. Песня извозчика.wav

Pre-gap length 0:00:02.00

Peak level 98.8 %
Track quality 100.0 %
Test CRC A949103A
Copy CRC A949103A
Copy OK

Track 7

Filename C:\Documents and Settings\gari\Мои документы\OutputMP3\07. Лейся песня на просторе.wav

Pre-gap length 0:00:02.00

Peak level 97.9 %
Track quality 100.0 %
Test CRC BCCFD1B0
Copy CRC BCCFD1B0
Copy OK

Track 8

Filename C:\Documents and Settings\gari\Мои документы\OutputMP3\08. Дорога на Берлин.wav

Pre-gap length 0:00:02.00

Peak level 97.6 %
Track quality 100.0 %
Test CRC 2D8C52C6
Copy CRC 2D8C52C6
Copy OK

Track 9

Filename C:\Documents and Settings\gari\Мои документы\OutputMP3\09. Случайный вальс.wav

Pre-gap length 0:00:02.00

Peak level 97.1 %
Track quality 100.0 %
Test CRC 3F17961F
Copy CRC 3F17961F
Copy OK

Track 10

Filename C:\Documents and Settings\gari\Мои документы\OutputMP3\10. Бомбардировщики.wav

Pre-gap length 0:00:02.00

Peak level 97.5 %
Track quality 100.0 %
Test CRC F9C20841
Copy CRC F9C20841
Copy OK

Track 11

Filename C:\Documents and Settings\gari\Мои документы\OutputMP3\11. Барон фон дер Пшик.wav

Pre-gap length 0:00:02.00

Peak level 98.8 %
Track quality 100.0 %
Test CRC 482774A1
Copy CRC 482774A1
Copy OK

Track 12

Filename C:\Documents and Settings\gari\Мои документы\OutputMP3\12. Солдатский вальс.wav

Pre-gap length 0:00:02.00

Peak level 97.9 %
Track quality 100.0 %
Test CRC BDB67B48
Copy CRC BDB67B48
Copy OK

Track 13

Filename C:\Documents and Settings\gari\Мои документы\OutputMP3\13. Если любишь, найди.wav

Pre-gap length 0:00:02.00

Peak level 85.4 %
Track quality 100.0 %
Test CRC 2F406B60
Copy CRC 2F406B60
Copy OK

Track 14

Filename C:\Documents and Settings\gari\Мои документы\OutputMP3\14. Тайна.wav

Pre-gap length 0:00:02.00

Peak level 98.8 %
Track quality 100.0 %
Test CRC F961472D
Copy CRC F961472D
Copy OK

Track 15

Filename C:\Documents and Settings\gari\Мои документы\OutputMP3\15. Лунная рапсодия.wav

Pre-gap length 0:00:02.00

Peak level 98.8 %
Track quality 99.9 %
Test CRC D24E6D9A
Copy CRC D24E6D9A
Copy OK

Track 16

Filename C:\Documents and Settings\gari\Мои документы\OutputMP3\16. Парень кудрявый.wav

Pre-gap length 0:00:02.00

Peak level 87.9 %
Track quality 99.9 %
Test CRC 36751011
Copy CRC 36751011
Copy OK

Track 17

Filename C:\Documents and Settings\gari\Мои документы\OutputMP3\17. Дороги мои москвичи.wav

Pre-gap length 0:00:02.00

Peak level 87.2 %
Track quality 100.0 %
Test CRC 998A330A
Copy CRC 998A330A
Copy OK

Track 18

Filename C:\Documents and Settings\gari\Мои документы\OutputMP3\18. Утро и вечер.wav

Pre-gap length 0:00:02.00

Peak level 89.1 %
Track quality 100.0 %
Test CRC B3398D3E
Copy CRC B3398D3E
Copy OK

Track 19

Filename C:\Documents and Settings\gari\Мои документы\OutputMP3\19. Пара гнедых.wav

Pre-gap length 0:00:02.00

Peak level 98.8 %
Track quality 100.0 %
Test CRC BDBE4F02
Copy CRC BDBE4F02
Copy OK

Track 20

Filename C:\Documents and Settings\gari\Мои документы\OutputMP3\20. Раскинулось море широко.wav

Pre-gap length 0:00:02.00

Peak level 94.4 %
Track quality 99.9 %
Test CRC B88C6F33
Copy CRC B88C6F33
Copy OK

Track 21

Filename C:\Documents and Settings\gari\Мои документы\OutputMP3\21. Мишка-одессит.wav

Pre-gap length 0:00:02.00

Peak level 95.8 %
Track quality 100.0 %
Test CRC ED149674
Copy CRC ED149674
Copy OK

Track 22

Filename C:\Documents and Settings\gari\Мои документы\OutputMP3\22. С одесского кичмана.wav

Pre-gap length 0:00:02.00

Peak level 97.8 %
Track quality 100.0 %
Test CRC BA12A35C
Copy CRC BA12A35C
Copy OK

Track 23

Filename C:\Documents and Settings\gari\Мои документы\OutputMP3\23. Бублички.wav

Pre-gap length 0:00:02.00

Peak level 98.8 %
Track quality 100.0 %
Test CRC 9AD7FD70
Copy CRC 9AD7FD70
Copy OK

Track 24

Filename C:\Documents and Settings\gari\Мои документы\OutputMP3\24. Гоп со смыком.wav

Pre-gap length 0:00:02.00

Peak level 97.8 %
Track quality 99.9 %
Test CRC A695097A
Copy CRC A695097A
Copy OK

Track 25

Filename C:\Documents and Settings\gari\Мои документы\OutputMP3\25. Тюх! Тюх!.wav

Pre-gap length 0:00:02.00

Peak level 98.8 %
Track quality 99.6 %
Test CRC A0FD4047
Copy CRC A0FD4047
Copy OK

No errors occurred

End of status report

Этот торрент недоступен для скачивания без регистрации, однако доступен по публичной magnet-ссылке (источники с публичных трекеров). Перед использованием ссылки прочтите, пожалуйста Пользовательское соглашение, а также как можно дольше оставайтесь на раздаче! Для того, чтобы скачать сам торрент-файл (который видит больше источников), а также для того, чтобы поблагодарить релизера, вам необходимо зарегистрироваться. Если регистрироваться лень - вы можете также попробовать скачать релиз по нашим партнерским ссылкам ниже. Кроме того, зарегистрированным пользователям не показывается всплывающая реклама при скачивании.

[underverse.su].t16064.torrent
Трекер: Зарегистрирован   [ 04.11.2011 18:50 ]  

Статус: проверено (by garry at 04.11.2011 18:51)
Поблагодарили: 2 человека
Тип торрента: публичный - доступные источники с открытых трекеров: 
Размер: 335 MB (занимает 0,07 DVDR, для записи нужно 1 болванка DVDR/RW)
 
 
Похожие темы
Форум Тема Автор Торрент Отв. Посл. сооб.
Отечественная Ретро Музыка (Lossless) (Retro) Леонид Утесов - Имена на все времена (2007) [FLAC (Image+.CUE), Lossless] Бишеп
0 | 0

1 | 1773

25

22.06.2014 21:24

Отечественная Ретро Музыка (Lossless) (Retro) Леонид Утесов - С одесского кичмана (2001) [FLAC (Image+.CUE), Lossless] Бишеп
2 | 0

0 | 1774

37

22.05.2015 14:29



Последний раз редактировалось: garry (04.07.2016 13:19), всего редактировалось 1 раз

Grigor.V Пол:Муж

22-Июн-2014 21:25

:super:

Яндекс.Метрика powered by Sphinx


В Н И М А Н И Е
Сайт не распространяет и не хранит электронные версии произведений, а лишь бесплатно и без коммерческой выгоды (не требуя взамен платы,
SMS и т.д.) предоставляет доступ к создаваемому пользователями каталогу ссылок на торрент-файлы, которые содержат только списки хеш-сумм.
Убедительная просьба с жалобами обращаться напрямую к пользователю, разместившему торрент файл.

Вверх