Loading...
Error

(Retro) Владимир Мигуля - Grand Collection (2008) [FLAC (Tracks+.CUE), lossless]

Статистика раздачи
Размер:  360 MB   |    Зарегистрирован:  9 лет 4 месяца   |    Скачан:  17 раз

Полного источника не было: 19 дней

Сидов:  0  |  0 KB/s  ]   Личеров:  0  |  0 KB/s  ]

* - сиды/пиры с внешних источников

   
 
Автор Сообщение

garry Пол:Муж

06-Ноя-2011 22:25

Владимир Мигуля - Grand Collection

Жанр: Retro
Год выпуска: 2008
Производитель диска: Квадро-Диск
Аудиокодек: FLAC
Тип рипа: Tracks+.CUE
Битрейт аудио: lossless
Продолжительность: 00:58:16

Треклист:

01. Земляничная поляна
02. Почему, не ведаю
03. А мне не надо от тебя
04. Все не просто - дуэт с Мариной Мигуля
05. Доброта - дуэт с Валентиной Толкуновой
06. Вишневая метель
07. Открой мне, господи, глаза
08. Любовь надо беречь
09. Три дня
10. Синяя птица
11. Аэлита
12. Каратэ
13. Танцуем диско
14. Скрипка Паганини
15. Трава у дома (бонус трек) Сергей Скачков, "Земляне"
16. Туда-сюда (бонус трек) Иван Ильичев
17. Спешите делать добрые дела (бонус трек) Анне Вески
Exact Audio Copy V0.99 prebeta 5 from 4. May 2009

EAC extraction logfile from 11. February 2011, 21:13

Владимир Мигуля / Grand Collection

Used drive : HL-DT-STDVDRAM GSA-H10N Adapter: 1 ID: 0

Read mode : Secure
Utilize accurate stream : Yes
Defeat audio cache : Yes
Make use of C2 pointers : No

Read offset correction : 667
Overread into Lead-In and Lead-Out : No
Fill up missing offset samples with silence : Yes
Delete leading and trailing silent blocks : No
Null samples used in CRC calculations : Yes
Used interface : Native Win32 interface for Win NT & 2000
Gap handling : Appended to previous track

Used output format : User Defined Encoder
Selected bitrate : 768 kBit/s
Quality : High
Add ID3 tag : No
Command line compressor : C:\Program Files\Exact Audio Copy\FLAC\FLAC.EXE
Additional command line options : -8 -V -T "ARTIST=%a" -T "TITLE=%t" -T "ALBUM=%g" -T "DATE=%y" -T "TRACKNUMBER=%n" -T "GENRE=%m" -T "COMMENT=EAC FLAC -8" %s

TOC of the extracted CD

Track | Start | Length | Start sector | End sector
---------------------------------------------------------
1 | 0:00.00 | 3:17.35 | 0 | 14809
2 | 3:17.35 | 3:18.25 | 14810 | 29684
3 | 6:35.60 | 3:09.70 | 29685 | 43929
4 | 9:45.55 | 3:43.31 | 43930 | 60685
5 | 13:29.11 | 2:58.01 | 60686 | 74036
6 | 16:27.12 | 3:07.45 | 74037 | 88106
7 | 19:34.57 | 3:35.16 | 88107 | 104247
8 | 23:09.73 | 3:07.32 | 104248 | 118304
9 | 26:17.30 | 2:14.29 | 118305 | 128383
10 | 28:31.59 | 4:13.61 | 128384 | 147419
11 | 32:45.45 | 3:14.23 | 147420 | 161992
12 | 35:59.68 | 2:25.52 | 161993 | 172919
13 | 38:25.45 | 3:29.25 | 172920 | 188619
14 | 41:54.70 | 4:29.72 | 188620 | 208866
15 | 46:24.67 | 4:44.73 | 208867 | 230239
16 | 51:09.65 | 3:35.66 | 230240 | 246430
17 | 54:45.56 | 3:39.68 | 246431 | 262923

Track 1

Filename C:\Documents and Settings\gari\Мои документы\OutputMP3\01. Земляничная поляна.wav

Pre-gap length 0:00:02.00

Peak level 97.4 %
Track quality 100.0 %
Test CRC 90927CC8
Copy CRC 90927CC8
Copy OK

Track 2

Filename C:\Documents and Settings\gari\Мои документы\OutputMP3\02. Почему, не ведаю.wav

Peak level 97.4 %
Track quality 100.0 %
Test CRC 859C9C47
Copy CRC 859C9C47
Copy OK

Track 3

Filename C:\Documents and Settings\gari\Мои документы\OutputMP3\03. А мне не надо от тебя.wav

Peak level 97.1 %
Track quality 99.9 %
Test CRC 7A10401F
Copy CRC 7A10401F
Copy OK

Track 4

Filename C:\Documents and Settings\gari\Мои документы\OutputMP3\04. Все не просто (и Марина Мигуля).wav

Peak level 97.1 %
Track quality 100.0 %
Test CRC 724D7147
Copy CRC 724D7147
Copy OK

Track 5

Filename C:\Documents and Settings\gari\Мои документы\OutputMP3\05. Доброта (и Валентина Толкунова).wav

Peak level 97.7 %
Track quality 100.0 %
Test CRC EF8923AA
Copy CRC EF8923AA
Copy OK

Track 6

Filename C:\Documents and Settings\gari\Мои документы\OutputMP3\06. Вишневая метель.wav

Peak level 98.3 %
Track quality 99.9 %
Test CRC FD0C172C
Copy CRC FD0C172C
Copy OK

Track 7

Filename C:\Documents and Settings\gari\Мои документы\OutputMP3\07. Открой мне, Господи, глаза.wav

Peak level 97.6 %
Track quality 100.0 %
Test CRC 0897A15F
Copy CRC 0897A15F
Copy OK

Track 8

Filename C:\Documents and Settings\gari\Мои документы\OutputMP3\08. Любовь надо беречь.wav

Peak level 97.4 %
Track quality 100.0 %
Test CRC 89E74EDA
Copy CRC 89E74EDA
Copy OK

Track 9

Filename C:\Documents and Settings\gari\Мои документы\OutputMP3\09. Три дня.wav

Peak level 96.9 %
Track quality 100.0 %
Test CRC 0C5994B7
Copy CRC 0C5994B7
Copy OK

Track 10

Filename C:\Documents and Settings\gari\Мои документы\OutputMP3\10. Синяя птица.wav

Peak level 97.6 %
Track quality 100.0 %
Test CRC 58A6A05C
Copy CRC 58A6A05C
Copy OK

Track 11

Filename C:\Documents and Settings\gari\Мои документы\OutputMP3\11. Аэлита.wav

Peak level 96.8 %
Track quality 100.0 %
Test CRC EDF4DE56
Copy CRC EDF4DE56
Copy OK

Track 12

Filename C:\Documents and Settings\gari\Мои документы\OutputMP3\12. Каратэ.wav

Peak level 97.1 %
Track quality 100.0 %
Test CRC 5ABE1562
Copy CRC 5ABE1562
Copy OK

Track 13

Filename C:\Documents and Settings\gari\Мои документы\OutputMP3\13. Танцуем диско.wav

Peak level 97.4 %
Track quality 100.0 %
Test CRC 04706453
Copy CRC 04706453
Copy OK

Track 14

Filename C:\Documents and Settings\gari\Мои документы\OutputMP3\14. Скрипка Паганини.wav

Peak level 96.7 %
Track quality 99.9 %
Test CRC A5E176A0
Copy CRC A5E176A0
Copy OK

Track 15

Filename C:\Documents and Settings\gari\Мои документы\OutputMP3\15. Трава у дома (и Земляне).wav

Peak level 97.2 %
Track quality 100.0 %
Test CRC D9A178C4
Copy CRC D9A178C4
Copy OK

Track 16

Filename C:\Documents and Settings\gari\Мои документы\OutputMP3\16. Туда-сюда (и Иван Ильичев).wav

Peak level 97.3 %
Track quality 100.0 %
Test CRC FD11A803
Copy CRC FD11A803
Copy OK

Track 17

Filename C:\Documents and Settings\gari\Мои документы\OutputMP3\17. Спешите делать добрые дела (и Анне Вески).wav

Peak level 96.5 %
Track quality 100.0 %
Test CRC FD1EBF45
Copy CRC FD1EBF45
Copy OK

No errors occurred

End of status report

Этот торрент недоступен для скачивания без регистрации, однако доступен по публичной magnet-ссылке (источники с публичных трекеров). Перед использованием ссылки прочтите, пожалуйста Пользовательское соглашение, а также как можно дольше оставайтесь на раздаче! Для того, чтобы скачать сам торрент-файл (который видит больше источников), а также для того, чтобы поблагодарить релизера, вам необходимо зарегистрироваться. Если регистрироваться лень - вы можете также попробовать скачать релиз по нашим партнерским ссылкам ниже. Кроме того, зарегистрированным пользователям не показывается всплывающая реклама при скачивании.

[underverse.su].t16083.torrent
Трекер: Зарегистрирован   [ 06.11.2011 22:25 ]  

Статус: проверено (by garry at 06.11.2011 22:26)
Поблагодарили: пока никто не поблагодарил...
Тип торрента: публичный - доступные источники с открытых трекеров: 
Размер: 360 MB (занимает 0,08 DVDR, для записи нужно 1 болванка DVDR/RW)
 
 

Яндекс.Метрика powered by Sphinx


В Н И М А Н И Е
Сайт не распространяет и не хранит электронные версии произведений, а лишь бесплатно и без коммерческой выгоды (не требуя взамен платы,
SMS и т.д.) предоставляет доступ к создаваемому пользователями каталогу ссылок на торрент-файлы, которые содержат только списки хеш-сумм.
Убедительная просьба с жалобами обращаться напрямую к пользователю, разместившему торрент файл.

Вверх