Loading...
Error

(Retro) Майя Кристалинская - Grand Collection (2004) [FLAC (Tracks+.CUE), lossless]

Статистика раздачи
Размер:  379 MB   |    Зарегистрирован:  9 лет 4 месяца   |    Скачан:  22 раза

Полного источника не было: 1 день 13 часов

Сидов:  0  |  0 KB/s  ]   Личеров:  0  |  0 KB/s  ]

* - сиды/пиры с внешних источников

   
 
Автор Сообщение

garry Пол:Муж

06-Ноя-2011 22:31

Майя Кристалинская - Grand Collection

Жанр: Retro
Год выпуска: 2004
Производитель диска: Мороз Рекордз
Аудиокодек: FLAC
Тип рипа: Tracks+.CUE
Битрейт аудио: lossless
Продолжительность: 01:13:41

Треклист:

01. Топ-топ
02. Я тебя подожду
03. Возможно
04. Не спеши
05. Пусть дни проходят
06. Детство ушло в даль
07. Нежность
08. Если вам ночью не спится
09. Люблю тебя
10. Когда разлюбишь ты
11. А снег идёт
12. Не знаю тебя
13. Пока ещё не осень
14. В нашем городе дождь
15. Неужели это мне одной
16. Аист
17. Наши мамы
18. Ненаглядный мой
19. Одноклассники
20. Счастливый день
21. Поговорим
22. Где ты раньше был
23. Листья прошлогодние
24. Русь
Exact Audio Copy V0.99 prebeta 5 from 4. May 2009

EAC extraction logfile from 13. February 2011, 16:46

Майя Кристалинская / Grand Collection

Used drive : HL-DT-STDVDRAM GSA-H10N Adapter: 1 ID: 0

Read mode : Secure
Utilize accurate stream : Yes
Defeat audio cache : Yes
Make use of C2 pointers : No

Read offset correction : 667
Overread into Lead-In and Lead-Out : No
Fill up missing offset samples with silence : Yes
Delete leading and trailing silent blocks : No
Null samples used in CRC calculations : Yes
Used interface : Native Win32 interface for Win NT & 2000
Gap handling : Appended to previous track

Used output format : User Defined Encoder
Selected bitrate : 768 kBit/s
Quality : High
Add ID3 tag : No
Command line compressor : C:\Program Files\Exact Audio Copy\FLAC\FLAC.EXE
Additional command line options : -8 -V -T "ARTIST=%a" -T "TITLE=%t" -T "ALBUM=%g" -T "DATE=%y" -T "TRACKNUMBER=%n" -T "GENRE=%m" -T "COMMENT=EAC FLAC -8" %s

TOC of the extracted CD

Track | Start | Length | Start sector | End sector
---------------------------------------------------------
1 | 0:00.00 | 2:22.17 | 0 | 10666
2 | 2:22.17 | 3:14.62 | 10667 | 25278
3 | 5:37.04 | 2:51.12 | 25279 | 38115
4 | 8:28.16 | 2:47.16 | 38116 | 50656
5 | 11:15.32 | 3:14.18 | 50657 | 65224
6 | 14:29.50 | 3:45.18 | 65225 | 82117
7 | 18:14.68 | 2:53.53 | 82118 | 95145
8 | 21:08.46 | 3:33.20 | 95146 | 111140
9 | 24:41.66 | 3:34.50 | 111141 | 127240
10 | 28:16.41 | 3:31.47 | 127241 | 143112
11 | 31:48.13 | 2:19.07 | 143113 | 153544
12 | 34:07.20 | 4:06.62 | 153545 | 172056
13 | 38:14.07 | 1:40.23 | 172057 | 179579
14 | 39:54.30 | 4:12.10 | 179580 | 198489
15 | 44:06.40 | 3:19.52 | 198490 | 213466
16 | 47:26.17 | 2:48.51 | 213467 | 226117
17 | 50:14.68 | 3:02.17 | 226118 | 239784
18 | 53:17.10 | 2:29.37 | 239785 | 250996
19 | 55:46.47 | 2:46.62 | 250997 | 263508
20 | 58:33.34 | 2:22.20 | 263509 | 274178
21 | 60:55.54 | 3:33.63 | 274179 | 290216
22 | 64:29.42 | 3:15.67 | 290217 | 304908
23 | 67:45.34 | 2:46.56 | 304909 | 317414
24 | 70:32.15 | 3:20.61 | 317415 | 332475

Track 1

Filename C:\Documents and Settings\gari\Мои документы\OutputMP3\01. Топ-топ.wav

Pre-gap length 0:00:02.00

Peak level 79.4 %
Track quality 100.0 %
Test CRC EBC9DFB7
Copy CRC EBC9DFB7
Accurately ripped (confidence 1) [F4F31814]
Copy OK

Track 2

Filename C:\Documents and Settings\gari\Мои документы\OutputMP3\02. Я тебя подожду.wav

Peak level 79.0 %
Track quality 100.0 %
Test CRC 3BFD2829
Copy CRC 3BFD2829
Accurately ripped (confidence 1) [8D5EB475]
Copy OK

Track 3

Filename C:\Documents and Settings\gari\Мои документы\OutputMP3\03. Возможно.wav

Peak level 79.4 %
Track quality 100.0 %
Test CRC 0805B7C2
Copy CRC 0805B7C2
Accurately ripped (confidence 1) [2B3FEE4D]
Copy OK

Track 4

Filename C:\Documents and Settings\gari\Мои документы\OutputMP3\04. Не спеши.wav

Peak level 79.1 %
Track quality 100.0 %
Test CRC C090B99C
Copy CRC C090B99C
Accurately ripped (confidence 1) [39E011A9]
Copy OK

Track 5

Filename C:\Documents and Settings\gari\Мои документы\OutputMP3\05. Пусть дни проходят.wav

Peak level 79.0 %
Track quality 99.9 %
Test CRC D6FDBB35
Copy CRC D6FDBB35
Accurately ripped (confidence 1) [CE7E76F1]
Copy OK

Track 6

Filename C:\Documents and Settings\gari\Мои документы\OutputMP3\06. Детство ушло в даль.wav

Peak level 78.9 %
Track quality 100.0 %
Test CRC 08888C52
Copy CRC 08888C52
Accurately ripped (confidence 1) [152E5699]
Copy OK

Track 7

Filename C:\Documents and Settings\gari\Мои документы\OutputMP3\07. Нежность.wav

Peak level 79.2 %
Track quality 100.0 %
Test CRC 02F094A3
Copy CRC 02F094A3
Accurately ripped (confidence 1) [D5EF466D]
Copy OK

Track 8

Filename C:\Documents and Settings\gari\Мои документы\OutputMP3\08. Если вам ночью не спится.wav

Peak level 78.9 %
Track quality 100.0 %
Test CRC DDCD8A1E
Copy CRC DDCD8A1E
Accurately ripped (confidence 1) [F2D1F595]
Copy OK

Track 9

Filename C:\Documents and Settings\gari\Мои документы\OutputMP3\09. Люблю тебя.wav

Peak level 78.8 %
Track quality 100.0 %
Test CRC A9CCEB8B
Copy CRC A9CCEB8B
Accurately ripped (confidence 1) [52F2486D]
Copy OK

Track 10

Filename C:\Documents and Settings\gari\Мои документы\OutputMP3\10. Когда разлюбишь ты.wav

Peak level 79.4 %
Track quality 100.0 %
Test CRC F11BFB46
Copy CRC F11BFB46
Accurately ripped (confidence 1) [357C3520]
Copy OK

Track 11

Filename C:\Documents and Settings\gari\Мои документы\OutputMP3\11. А снег идёт.wav

Peak level 84.1 %
Track quality 100.0 %
Test CRC 7138016E
Copy CRC 7138016E
Accurately ripped (confidence 1) [B9A7C18D]
Copy OK

Track 12

Filename C:\Documents and Settings\gari\Мои документы\OutputMP3\12. Не знаю тебя.wav

Peak level 84.1 %
Track quality 100.0 %
Test CRC C24AA535
Copy CRC C24AA535
Accurately ripped (confidence 1) [1AF98E45]
Copy OK

Track 13

Filename C:\Documents and Settings\gari\Мои документы\OutputMP3\13. Пока ещё не осень.wav

Peak level 79.4 %
Track quality 100.0 %
Test CRC 9A4AE375
Copy CRC 9A4AE375
Accurately ripped (confidence 1) [9562DFB5]
Copy OK

Track 14

Filename C:\Documents and Settings\gari\Мои документы\OutputMP3\14. В нашем городе дождь.wav

Peak level 78.8 %
Track quality 100.0 %
Test CRC 9B9F4165
Copy CRC 9B9F4165
Accurately ripped (confidence 1) [D3F2D646]
Copy OK

Track 15

Filename C:\Documents and Settings\gari\Мои документы\OutputMP3\15. Неужели это мне одной.wav

Peak level 79.3 %
Track quality 100.0 %
Test CRC 841823CF
Copy CRC 841823CF
Accurately ripped (confidence 1) [B92B8884]
Copy OK

Track 16

Filename C:\Documents and Settings\gari\Мои документы\OutputMP3\16. Аист.wav

Peak level 79.3 %
Track quality 99.9 %
Test CRC A8D93F1F
Copy CRC A8D93F1F
Accurately ripped (confidence 1) [0D7A8209]
Copy OK

Track 17

Filename C:\Documents and Settings\gari\Мои документы\OutputMP3\17. Наши мамы.wav

Peak level 78.9 %
Track quality 100.0 %
Test CRC B40FE244
Copy CRC B40FE244
Accurately ripped (confidence 1) [2F8BC4A7]
Copy OK

Track 18

Filename C:\Documents and Settings\gari\Мои документы\OutputMP3\18. Ненаглядный мой.wav

Peak level 78.9 %
Track quality 100.0 %
Test CRC 9FC015E6
Copy CRC 9FC015E6
Accurately ripped (confidence 1) [22092A82]
Copy OK

Track 19

Filename C:\Documents and Settings\gari\Мои документы\OutputMP3\19. Одноклассники.wav

Peak level 79.0 %
Track quality 100.0 %
Test CRC 91375382
Copy CRC 91375382
Accurately ripped (confidence 1) [A8CFED9D]
Copy OK

Track 20

Filename C:\Documents and Settings\gari\Мои документы\OutputMP3\20. Счастливый день.wav

Peak level 79.4 %
Track quality 100.0 %
Test CRC 94DCEB96
Copy CRC 94DCEB96
Accurately ripped (confidence 1) [6F7B6E20]
Copy OK

Track 21

Filename C:\Documents and Settings\gari\Мои документы\OutputMP3\21. Поговорим.wav

Peak level 79.2 %
Track quality 99.9 %
Test CRC 1D01502E
Copy CRC 1D01502E
Accurately ripped (confidence 1) [9293BA25]
Copy OK

Track 22

Filename C:\Documents and Settings\gari\Мои документы\OutputMP3\22. Где ты раньше был.wav

Peak level 78.8 %
Track quality 99.9 %
Test CRC 4FE628CE
Copy CRC 4FE628CE
Accurately ripped (confidence 1) [FF839396]
Copy OK

Track 23

Filename C:\Documents and Settings\gari\Мои документы\OutputMP3\23. Листья прошлогодние.wav

Peak level 79.4 %
Track quality 100.0 %
Test CRC 7F3C3425
Copy CRC 7F3C3425
Accurately ripped (confidence 1) [A2F46776]
Copy OK

Track 24

Filename C:\Documents and Settings\gari\Мои документы\OutputMP3\24. Русь.wav

Peak level 79.4 %
Track quality 100.0 %
Test CRC E0F02B98
Copy CRC E0F02B98
Accurately ripped (confidence 1) [549B37AD]
Copy OK

All tracks accurately ripped

No errors occurred

End of status report

Этот торрент недоступен для скачивания без регистрации, однако доступен по публичной magnet-ссылке (источники с публичных трекеров). Перед использованием ссылки прочтите, пожалуйста Пользовательское соглашение, а также как можно дольше оставайтесь на раздаче! Для того, чтобы скачать сам торрент-файл (который видит больше источников), а также для того, чтобы поблагодарить релизера, вам необходимо зарегистрироваться. Если регистрироваться лень - вы можете также попробовать скачать релиз по нашим партнерским ссылкам ниже. Кроме того, зарегистрированным пользователям не показывается всплывающая реклама при скачивании.

[underverse.su].t16084.torrent
Трекер: Зарегистрирован   [ 06.11.2011 22:31 ]  

Статус: проверено (by garry at 06.11.2011 22:31)
Поблагодарили: 1 человек
Тип торрента: публичный - доступные источники с открытых трекеров: 
Размер: 379 MB (занимает 0,08 DVDR, для записи нужно 1 болванка DVDR/RW)
 
 
Похожие темы
Форум Тема Автор Торрент Отв. Посл. сооб.
Авторские песни, Барды (Lossless) (Retro) Манюня и Ураган (Марина Анисимова и Сергей Гоппен) - И всё сбылось... и не сбылось? (2003) [FLAC (Image+.CUE), Lossless] Inspektor_49
0 | 0

0 | 406

4

01.11.2019 10:54

Отечественная Ретро Музыка (Lossless) (Retro) Марк Бернес - Grand Collection (2005) [FLAC (Image+.CUE), Lossless] Бишеп
2 | 1

0 | 2969

31

22.05.2015 14:07

Архив (ретро, шансон, военная музыка, барды) (Retro) Марк Бернес - Неизданные и раритетные песни (2006) [MP3, 256 kbps] Odin
0 | 0

1 | 1686

0

17.02.2011 14:46


Яндекс.Метрика powered by Sphinx


В Н И М А Н И Е
Сайт не распространяет и не хранит электронные версии произведений, а лишь бесплатно и без коммерческой выгоды (не требуя взамен платы,
SMS и т.д.) предоставляет доступ к создаваемому пользователями каталогу ссылок на торрент-файлы, которые содержат только списки хеш-сумм.
Убедительная просьба с жалобами обращаться напрямую к пользователю, разместившему торрент файл.

Вверх