Loading...
Error

(Vocal) Федор Шаляпин - Grand Collection (2004) [FLAC (Tracks+.CUE), lossless]

Статистика раздачи
Размер:  249 MB   |    Зарегистрирован:  9 лет 6 месяцев   |    Скачан:  18 раз

Полного источника не было: 5 дней

Сидов:  0  |  0 KB/s  ]   Личеров:  0  |  0 KB/s  ]

* - сиды/пиры с внешних источников

   
 
Автор Сообщение

garry Пол:Муж

06-Ноя-2011 22:44

Федор Шаляпин - Grand Collection

Жанр: Vocal
Год выпуска: 2004
Производитель диска: Квадро-диск
Аудиокодек: FLAC
Тип рипа: Tracks+.CUE
Битрейт аудио: lossless
Продолжительность: 01:19:33

Треклист:

01. Михаил Глинка - Уймитесь, волнения, страсти
02. Jules Massenet - Элегия
03. Прощай, радость - жизнь моя (нар.)
04. Флориан Герман - Очи черные
05. Модест Мусоргский - Блоха
06. Эй, ухнем! (русская народная песня)
07. Антон Рубинштейн - Узник
08. Дубинушка (русская народная песня)
09. Солнце всходит и заходит (автор неизвестен)
10. Вдоль по Питерской (нар.)
11. Николай Маныкин-Невструев - Песнь убогого странника
12. Григорий Лишин - Она хохотала
13. Сказание о двенадцати разбойниках (нар.)
14. Из-за острова на стяжень (нар.)
15. Михаил Глинка - Ночной смотр
16. Александр Даргомыжский - Старый капрал
17. Robert Schumann - Два гренадера
18. Николай Римский-Корсаков - Пророк
19. Вниз по матушке, по Волге (нар.)
20. Антон Рубинштейн - Клубится волной
21. Александр Даргомыжский - Болеро
22. Александр Гречанинов - Слава тебе, Господи!
Exact Audio Copy V0.99 prebeta 5 from 4. May 2009

EAC extraction logfile from 2. March 2011, 22:38

Grand Collection / Федор Шаляпин

Used drive : SONY CD-RW CRX230ED Adapter: 1 ID: 0

Read mode : Secure
Utilize accurate stream : Yes
Defeat audio cache : Yes
Make use of C2 pointers : No

Read offset correction : 6
Overread into Lead-In and Lead-Out : No
Fill up missing offset samples with silence : Yes
Delete leading and trailing silent blocks : No
Null samples used in CRC calculations : Yes
Used interface : Native Win32 interface for Win NT & 2000
Gap handling : Appended to previous track

Used output format : User Defined Encoder
Selected bitrate : 768 kBit/s
Quality : High
Add ID3 tag : No
Command line compressor : C:\Program Files\Exact Audio Copy\FLAC\FLAC.EXE
Additional command line options : -8 -V -T "ARTIST=%a" -T "TITLE=%t" -T "ALBUM=%g" -T "DATE=%y" -T "TRACKNUMBER=%n" -T "GENRE=%m" -T "COMMENT=EAC FLAC -8" %s

TOC of the extracted CD

Track | Start | Length | Start sector | End sector
---------------------------------------------------------
1 | 0:00.00 | 4:32.70 | 0 | 20469
2 | 4:32.70 | 4:15.26 | 20470 | 39620
3 | 8:48.21 | 3:54.10 | 39621 | 57180
4 | 12:42.31 | 3:32.01 | 57181 | 73081
5 | 16:14.32 | 2:54.66 | 73082 | 86197
6 | 19:09.23 | 3:15.04 | 86198 | 100826
7 | 22:24.27 | 2:52.60 | 100827 | 113786
8 | 25:17.12 | 3:25.57 | 113787 | 129218
9 | 28:42.69 | 3:24.54 | 129219 | 144572
10 | 32:07.48 | 1:57.47 | 144573 | 153394
11 | 34:05.20 | 3:29.56 | 153395 | 169125
12 | 37:35.01 | 3:36.06 | 169126 | 185331
13 | 41:11.07 | 3:56.70 | 185332 | 203101
14 | 45:08.02 | 4:00.00 | 203102 | 221101
15 | 49:08.02 | 4:03.28 | 221102 | 239354
16 | 53:11.30 | 4:33.73 | 239355 | 259902
17 | 57:45.28 | 3:05.36 | 259903 | 273813
18 | 60:50.64 | 4:19.42 | 273814 | 293280
19 | 65:10.31 | 3:23.09 | 293281 | 308514
20 | 68:33.40 | 4:38.18 | 308515 | 329382
21 | 73:11.58 | 2:18.66 | 329383 | 339798
22 | 75:30.49 | 4:13.44 | 339799 | 358817

Track 1

Filename C:\Documents and Settings\gari\Мои документы\OutputMP3\01. Уймитесь, волнения, страсти.wav

Pre-gap length 0:00:02.00

Peak level 96.6 %
Track quality 99.9 %
Test CRC 01B56B7F
Copy CRC 01B56B7F
Copy OK

Track 2

Filename C:\Documents and Settings\gari\Мои документы\OutputMP3\02. Элегия.wav

Pre-gap length 0:00:02.00

Peak level 94.5 %
Track quality 99.9 %
Test CRC CC5596CA
Copy CRC CC5596CA
Copy OK

Track 3

Filename C:\Documents and Settings\gari\Мои документы\OutputMP3\03. Прощай, радость - жизнь моя.wav

Pre-gap length 0:00:01.74

Peak level 98.8 %
Track quality 100.0 %
Test CRC 9301EE23
Copy CRC 9301EE23
Copy OK

Track 4

Filename C:\Documents and Settings\gari\Мои документы\OutputMP3\04. Очи черные.wav

Pre-gap length 0:00:02.00

Peak level 89.1 %
Track quality 100.0 %
Test CRC AEC0D459
Copy CRC AEC0D459
Copy OK

Track 5

Filename C:\Documents and Settings\gari\Мои документы\OutputMP3\05. Блоха.wav

Pre-gap length 0:00:02.00

Peak level 96.6 %
Track quality 100.0 %
Test CRC 3782173B
Copy CRC 3782173B
Copy OK

Track 6

Filename C:\Documents and Settings\gari\Мои документы\OutputMP3\06. Эй, ухнем!.wav

Pre-gap length 0:00:02.00

Peak level 96.6 %
Track quality 100.0 %
Test CRC 95CFB171
Copy CRC 95CFB171
Copy OK

Track 7

Filename C:\Documents and Settings\gari\Мои документы\OutputMP3\07. Узник.wav

Pre-gap length 0:00:02.00

Peak level 96.6 %
Track quality 100.0 %
Test CRC 82B33184
Copy CRC 82B33184
Copy OK

Track 8

Filename C:\Documents and Settings\gari\Мои документы\OutputMP3\08. Дубинушка.wav

Pre-gap length 0:00:02.00

Peak level 96.6 %
Track quality 100.0 %
Test CRC DAEC0674
Copy CRC DAEC0674
Copy OK

Track 9

Filename C:\Documents and Settings\gari\Мои документы\OutputMP3\09. Солнце всходит и заходит.wav

Pre-gap length 0:00:02.00

Peak level 96.6 %
Track quality 100.0 %
Test CRC 15E76E09
Copy CRC 15E76E09
Copy OK

Track 10

Filename C:\Documents and Settings\gari\Мои документы\OutputMP3\10. Вдоль по Питерской.wav

Pre-gap length 0:00:02.00

Peak level 96.6 %
Track quality 100.0 %
Test CRC F55EC2EC
Copy CRC F55EC2EC
Copy OK

Track 11

Filename C:\Documents and Settings\gari\Мои документы\OutputMP3\11. Песнь убогого странника.wav

Pre-gap length 0:00:02.00

Peak level 96.6 %
Track quality 100.0 %
Test CRC 0284B6D7
Copy CRC 0284B6D7
Copy OK

Track 12

Filename C:\Documents and Settings\gari\Мои документы\OutputMP3\12. Она хохотала.wav

Pre-gap length 0:00:02.00

Peak level 96.6 %
Track quality 100.0 %
Test CRC 1DF83FC1
Copy CRC 1DF83FC1
Copy OK

Track 13

Filename C:\Documents and Settings\gari\Мои документы\OutputMP3\13. Сказание о двенадцати разбойниках.wav

Pre-gap length 0:00:02.00

Peak level 96.6 %
Track quality 100.0 %
Test CRC 27871662
Copy CRC 27871662
Copy OK

Track 14

Filename C:\Documents and Settings\gari\Мои документы\OutputMP3\14. Из-за острова на стяжень.wav

Pre-gap length 0:00:02.00

Peak level 96.6 %
Track quality 100.0 %
Test CRC E343499A
Copy CRC E343499A
Copy OK

Track 15

Filename C:\Documents and Settings\gari\Мои документы\OutputMP3\15. Ночной смотр.wav

Pre-gap length 0:00:02.00

Peak level 96.6 %
Track quality 100.0 %
Test CRC 2EE414B1
Copy CRC 2EE414B1
Copy OK

Track 16

Filename C:\Documents and Settings\gari\Мои документы\OutputMP3\16. Старый капрал.wav

Pre-gap length 0:00:02.00

Peak level 96.6 %
Track quality 100.0 %
Test CRC 75EA3A44
Copy CRC 75EA3A44
Copy OK

Track 17

Filename C:\Documents and Settings\gari\Мои документы\OutputMP3\17. Два гренадера.wav

Pre-gap length 0:00:02.00

Peak level 96.6 %
Track quality 100.0 %
Test CRC D751B4C4
Copy CRC D751B4C4
Copy OK

Track 18

Filename C:\Documents and Settings\gari\Мои документы\OutputMP3\18. Пророк.wav

Pre-gap length 0:00:02.00

Peak level 96.6 %
Track quality 100.0 %
Test CRC 573C4D55
Copy CRC 573C4D55
Copy OK

Track 19

Filename C:\Documents and Settings\gari\Мои документы\OutputMP3\19. Вниз по матушке, по Волге.wav

Pre-gap length 0:00:02.00

Peak level 96.6 %
Track quality 100.0 %
Test CRC 8D24A41C
Copy CRC 8D24A41C
Copy OK

Track 20

Filename C:\Documents and Settings\gari\Мои документы\OutputMP3\20. Клубится волной.wav

Pre-gap length 0:00:02.00

Peak level 96.6 %
Track quality 99.9 %
Test CRC FA04F902
Copy CRC FA04F902
Copy OK

Track 21

Filename C:\Documents and Settings\gari\Мои документы\OutputMP3\21. Болеро.wav

Pre-gap length 0:00:02.00

Peak level 96.6 %
Track quality 100.0 %
Test CRC D22B35D0
Copy CRC D22B35D0
Copy OK

Track 22

Filename C:\Documents and Settings\gari\Мои документы\OutputMP3\22. Слава тебе, Господи!.wav

Pre-gap length 0:00:02.00

Peak level 96.6 %
Track quality 100.0 %
Test CRC BB1A9867
Copy CRC BB1A9867
Copy OK

No errors occurred

End of status report

Этот торрент недоступен для скачивания без регистрации, однако доступен по публичной magnet-ссылке (источники с публичных трекеров). Перед использованием ссылки прочтите, пожалуйста Пользовательское соглашение, а также как можно дольше оставайтесь на раздаче! Для того, чтобы скачать сам торрент-файл (который видит больше источников), а также для того, чтобы поблагодарить релизера, вам необходимо зарегистрироваться. Если регистрироваться лень - вы можете также попробовать скачать релиз по нашим партнерским ссылкам ниже. Кроме того, зарегистрированным пользователям не показывается всплывающая реклама при скачивании.

[underverse.su].t16085.torrent
Трекер: Зарегистрирован   [ 06.11.2011 22:44 ]  

Статус: проверено (by garry at 06.11.2011 22:45)
Поблагодарили: пока никто не поблагодарил...
Тип торрента: публичный - доступные источники с открытых трекеров: 
Размер: 249 MB (занимает 0,06 DVDR, для записи нужно 1 болванка DVDR/RW)
 
 

Яндекс.Метрика powered by Sphinx


В Н И М А Н И Е
Сайт не распространяет и не хранит электронные версии произведений, а лишь бесплатно и без коммерческой выгоды (не требуя взамен платы,
SMS и т.д.) предоставляет доступ к создаваемому пользователями каталогу ссылок на торрент-файлы, которые содержат только списки хеш-сумм.
Убедительная просьба с жалобами обращаться напрямую к пользователю, разместившему торрент файл.

Вверх