Loading...
Error

(Retro) Людмила Зыкина - Grand Collection (2003) [FLAC (Tracks+.CUE), lossless]

Статистика раздачи
Размер:  407 MB   |    Зарегистрирован:  9 лет 4 месяца   |    Скачан:  19 раз

Полного источника не было: 7 часов

Сидов:  0  |  0 KB/s  ]   Личеров:  0  |  0 KB/s  ]

* - сиды/пиры с внешних источников

   
 
Автор Сообщение

garry Пол:Муж

06-Ноя-2011 22:50

Людмила Зыкина - Grand Collection

Жанр: Retro
Год выпуска: 2003
Производитель диска: Квадро-Диск
Аудиокодек: FLAC
Тип рипа: Tracks+.CUE
Битрейт аудио: lossless
Продолжительность: 01:14:25

Треклист:

01. Течёт Волга
02. Берёзка
03. На побывку едет
04. Рязанские мадонны
05. Оренбургский платок
06. Кабы были златы крылышки
07. Тонкая рябина
08. Сронила колечко
09. Матушка, что во поле пыльно
10. Вечор поздно из лесочка
11. Посею лебеду
12. Ой, грибы-грибочки
13. Сибирский ленок
14. Белолицы-румяницы
15. Русская метелица
16. Растёт в Волгограде берёзка
17. Горят закаты
18. Степь да степь кругом
19. Я лечу над Россией
Exact Audio Copy V0.99 prebeta 5 from 4. May 2009

EAC extraction logfile from 4. March 2011, 22:25

Людмила Зыкина / Grand Collection

Used drive : SONY CD-RW CRX230ED Adapter: 1 ID: 0

Read mode : Secure
Utilize accurate stream : Yes
Defeat audio cache : Yes
Make use of C2 pointers : No

Read offset correction : 6
Overread into Lead-In and Lead-Out : No
Fill up missing offset samples with silence : Yes
Delete leading and trailing silent blocks : No
Null samples used in CRC calculations : Yes
Used interface : Native Win32 interface for Win NT & 2000
Gap handling : Appended to previous track

Used output format : User Defined Encoder
Selected bitrate : 768 kBit/s
Quality : High
Add ID3 tag : No
Command line compressor : C:\Program Files\Exact Audio Copy\FLAC\FLAC.EXE
Additional command line options : -8 -V -T "ARTIST=%a" -T "TITLE=%t" -T "ALBUM=%g" -T "DATE=%y" -T "TRACKNUMBER=%n" -T "GENRE=%m" -T "COMMENT=EAC FLAC -8" %s

TOC of the extracted CD

Track | Start | Length | Start sector | End sector
---------------------------------------------------------
1 | 0:00.00 | 6:14.47 | 0 | 28096
2 | 6:14.47 | 3:31.34 | 28097 | 43955
3 | 9:46.06 | 3:02.63 | 43956 | 57668
4 | 12:48.69 | 4:46.25 | 57669 | 79143
5 | 17:35.19 | 4:46.00 | 79144 | 100593
6 | 22:21.19 | 2:46.61 | 100594 | 113104
7 | 25:08.05 | 5:13.62 | 113105 | 136641
8 | 30:21.67 | 4:04.39 | 136642 | 154980
9 | 34:26.31 | 2:53.18 | 154981 | 167973
10 | 37:19.49 | 2:09.36 | 167974 | 177684
11 | 39:29.10 | 2:16.29 | 177685 | 187913
12 | 41:45.39 | 2:46.06 | 187914 | 200369
13 | 44:31.45 | 4:22.26 | 200370 | 220045
14 | 48:53.71 | 3:42.65 | 220046 | 236760
15 | 52:36.61 | 1:56.56 | 236761 | 245516
16 | 54:33.42 | 5:00.27 | 245517 | 268043
17 | 59:33.69 | 5:16.25 | 268044 | 291768
18 | 64:50.19 | 6:25.66 | 291769 | 320709
19 | 71:16.10 | 3:18.68 | 320710 | 335627

Track 1

Filename C:\Documents and Settings\gari\Мои документы\OutputMP3\01. Течёт Волга.wav

Pre-gap length 0:00:02.00

Peak level 95.7 %
Track quality 100.0 %
Test CRC 7DBDEA57
Copy CRC 7DBDEA57
Copy OK

Track 2

Filename C:\Documents and Settings\gari\Мои документы\OutputMP3\02. Берёзка.wav

Pre-gap length 0:00:02.00

Peak level 99.8 %
Track quality 100.0 %
Test CRC 20BDA3E8
Copy CRC 20BDA3E8
Copy OK

Track 3

Filename C:\Documents and Settings\gari\Мои документы\OutputMP3\03. На побывку едет.wav

Pre-gap length 0:00:02.00

Peak level 99.8 %
Track quality 100.0 %
Test CRC 00A8E89D
Copy CRC 00A8E89D
Copy OK

Track 4

Filename C:\Documents and Settings\gari\Мои документы\OutputMP3\04. Рязанские мадонны.wav

Pre-gap length 0:00:02.00

Peak level 99.8 %
Track quality 100.0 %
Test CRC 11C57A33
Copy CRC 11C57A33
Copy OK

Track 5

Filename C:\Documents and Settings\gari\Мои документы\OutputMP3\05. Оренбургский платок.wav

Pre-gap length 0:00:02.01

Peak level 99.8 %
Track quality 100.0 %
Test CRC AA946CCC
Copy CRC AA946CCC
Copy OK

Track 6

Filename C:\Documents and Settings\gari\Мои документы\OutputMP3\06. Кабы были златы крылышки.wav

Pre-gap length 0:00:02.00

Peak level 99.8 %
Track quality 100.0 %
Test CRC 748A968B
Copy CRC 748A968B
Copy OK

Track 7

Filename C:\Documents and Settings\gari\Мои документы\OutputMP3\07. Тонкая рябина.wav

Pre-gap length 0:00:02.00

Peak level 99.8 %
Track quality 100.0 %
Test CRC CBC325FE
Copy CRC CBC325FE
Copy OK

Track 8

Filename C:\Documents and Settings\gari\Мои документы\OutputMP3\08. Сронила колечко.wav

Pre-gap length 0:00:02.01

Peak level 95.0 %
Track quality 100.0 %
Test CRC A0367A9B
Copy CRC A0367A9B
Copy OK

Track 9

Filename C:\Documents and Settings\gari\Мои документы\OutputMP3\09. Матушка, что во поле пыльно.wav

Pre-gap length 0:00:02.00

Peak level 99.8 %
Track quality 100.0 %
Test CRC 19DCB912
Copy CRC 19DCB912
Copy OK

Track 10

Filename C:\Documents and Settings\gari\Мои документы\OutputMP3\10. Вечор поздно из лесочка.wav

Pre-gap length 0:00:02.01

Peak level 99.8 %
Track quality 99.9 %
Test CRC F35E6785
Copy CRC F35E6785
Copy OK

Track 11

Filename C:\Documents and Settings\gari\Мои документы\OutputMP3\11. Посею лебеду.wav

Pre-gap length 0:00:02.01

Peak level 99.8 %
Track quality 100.0 %
Test CRC 7C6DBB67
Copy CRC 7C6DBB67
Copy OK

Track 12

Filename C:\Documents and Settings\gari\Мои документы\OutputMP3\12. Ой, грибы-грибочки.wav

Pre-gap length 0:00:02.00

Peak level 99.8 %
Track quality 100.0 %
Test CRC C113D37F
Copy CRC C113D37F
Copy OK

Track 13

Filename C:\Documents and Settings\gari\Мои документы\OutputMP3\13. Сибирский ленок.wav

Pre-gap length 0:00:02.01

Peak level 99.8 %
Track quality 99.9 %
Test CRC D5F68BA2
Copy CRC D5F68BA2
Copy OK

Track 14

Filename C:\Documents and Settings\gari\Мои документы\OutputMP3\14. Белолицы-румяницы.wav

Pre-gap length 0:00:01.74

Peak level 99.8 %
Track quality 100.0 %
Test CRC 908D4299
Copy CRC 908D4299
Copy OK

Track 15

Filename C:\Documents and Settings\gari\Мои документы\OutputMP3\15. Русская метелица.wav

Pre-gap length 0:00:02.01

Peak level 99.8 %
Track quality 100.0 %
Test CRC 34F2995F
Copy CRC 34F2995F
Copy OK

Track 16

Filename C:\Documents and Settings\gari\Мои документы\OutputMP3\16. Растёт в Волгограде берёзка.wav

Pre-gap length 0:00:02.00

Peak level 99.8 %
Track quality 100.0 %
Test CRC 66F6AA61
Copy CRC 66F6AA61
Copy OK

Track 17

Filename C:\Documents and Settings\gari\Мои документы\OutputMP3\17. Горят закаты.wav

Pre-gap length 0:00:02.01

Peak level 99.8 %
Track quality 100.0 %
Test CRC 3CC9B943
Copy CRC 3CC9B943
Copy OK

Track 18

Filename C:\Documents and Settings\gari\Мои документы\OutputMP3\18. Степь да степь кругом.wav

Pre-gap length 0:00:02.00

Peak level 99.8 %
Track quality 100.0 %
Test CRC CF31C18D
Copy CRC CF31C18D
Copy OK

Track 19

Filename C:\Documents and Settings\gari\Мои документы\OutputMP3\19. Я лечу над Россией.wav

Pre-gap length 0:00:02.01

Peak level 99.8 %
Track quality 99.9 %
Test CRC 48CE8BEA
Copy CRC 48CE8BEA
Copy OK

No errors occurred

End of status report

Этот торрент недоступен для скачивания без регистрации, однако доступен по публичной magnet-ссылке (источники с публичных трекеров). Перед использованием ссылки прочтите, пожалуйста Пользовательское соглашение, а также как можно дольше оставайтесь на раздаче! Для того, чтобы скачать сам торрент-файл (который видит больше источников), а также для того, чтобы поблагодарить релизера, вам необходимо зарегистрироваться. Если регистрироваться лень - вы можете также попробовать скачать релиз по нашим партнерским ссылкам ниже. Кроме того, зарегистрированным пользователям не показывается всплывающая реклама при скачивании.

[underverse.su].t16086.torrent
Трекер: Зарегистрирован   [ 06.11.2011 22:50 ]  

Статус: проверено (by garry at 06.11.2011 22:51)
Поблагодарили: 2 человека
Тип торрента: публичный - доступные источники с открытых трекеров: 
Размер: 407 MB (занимает 0,09 DVDR, для записи нужно 1 болванка DVDR/RW)
 
 

Яндекс.Метрика powered by Sphinx


В Н И М А Н И Е
Сайт не распространяет и не хранит электронные версии произведений, а лишь бесплатно и без коммерческой выгоды (не требуя взамен платы,
SMS и т.д.) предоставляет доступ к создаваемому пользователями каталогу ссылок на торрент-файлы, которые содержат только списки хеш-сумм.
Убедительная просьба с жалобами обращаться напрямую к пользователю, разместившему торрент файл.

Вверх