Loading...
Error

(Blues) Neal Black & The Healers - Little Boom Boom Boom (2020) [FLAC (Image+.cue), lossless]

Статистика раздачи
Размер:  377 MB   |    Зарегистрирован:  2 года   |    Скачан:  5 раз

Полного источника не было: 5 месяцев 19 дней

Сидов:  0  |  0 KB/s  ]   Личеров:  0  |  0 KB/s  ]

* - сиды/пиры с внешних источников

   
 
Автор Сообщение

Serghanter Пол:Муж

06-Сен-2020 16:05

Neal Black & The Healers - Little Boom Boom Boom


Жанр: Blues
Год выпуска: 2020
Носитель: CD
Производитель: DixieFrog Records / DFGCD 8812
Аудиокодек: FLAC
Тип рипа: Image+.cue
Битрейт: lossless
Продолжительность: 00:56:45

Треклист:

01. Don't Follow Me There (5:31)
02. Why Do People Act Like That (4:12)
03. All For Business (4:54)
04. Green Bean Swing (3:23)
05. Little Boom Boom Boom (4:10)
06. Never Been Lucky (4:36)
07. Shoeshine Shuffle (4:04)
08. Break A Promise (4:04)
09. Forgive Yourself (3:15)
10. Saints of New Orleans (4:24)
11. Going Down Together (4:27)
12. Alabama Flamenco (5:10)
13. Secrets (4:28)

discogs
Exact Audio Copy V1.3 from 2. September 2016 

EAC extraction logfile from 20. August 2020, 23:36

Neal Black & The Healers / A Little Boom Boom Boom

Used drive : TSSTcorpCDDVDW SH-224FB Adapter: 1 ID: 0

Read mode : Secure
Utilize accurate stream : Yes
Defeat audio cache : Yes
Make use of C2 pointers : No

Read offset correction : 6
Overread into Lead-In and Lead-Out : No
Fill up missing offset samples with silence : Yes
Delete leading and trailing silent blocks : No
Null samples used in CRC calculations : Yes
Used interface : Native Win32 interface for Win NT & 2000

Used output format : User Defined Encoder
Selected bitrate : 1024 kBit/s
Quality : High
Add ID3 tag : No
Command line compressor : C:\Program Files (x86)\Exact Audio Copy\Flac\flac.exe
Additional command line options : -V -8 -T "Date=%year%" -T "Genre=%genre%" -T"COMMENT=Ripped by Gra.mi" -8 -V %source%

TOC of the extracted CD

Track | Start | Length | Start sector | End sector
---------------------------------------------------------
1 | 0:00.00 | 5:31.12 | 0 | 24836
2 | 5:31.12 | 4:12.73 | 24837 | 43809
3 | 9:44.10 | 4:54.60 | 43810 | 65919
4 | 14:38.70 | 3:23.39 | 65920 | 81183
5 | 18:02.34 | 4:10.30 | 81184 | 99963
6 | 22:12.64 | 4:36.30 | 99964 | 120693
7 | 26:49.19 | 4:04.49 | 120694 | 139042
8 | 30:53.68 | 4:04.61 | 139043 | 157403
9 | 34:58.54 | 3:15.72 | 157404 | 172100
10 | 38:14.51 | 4:24.72 | 172101 | 191972
11 | 42:39.48 | 4:28.15 | 191973 | 212087
12 | 47:07.63 | 5:09.07 | 212088 | 235269
13 | 52:16.70 | 4:27.49 | 235270 | 255343

Range status and errors

Selected range

Filename D:\Neal Black & The Healers - A Little Boom Boom Boom\Neal Black & The Healers - A Little Boom Boom Boom.wav

Peak level 96.2 %
Extraction speed 7.3 X
Range quality 100.0 %
Test CRC FE5DB36A
Copy CRC FE5DB36A
Copy OK

No errors occurred

AccurateRip summary

Track 1 not present in database
Track 2 not present in database
Track 3 not present in database
Track 4 not present in database
Track 5 not present in database
Track 6 not present in database
Track 7 not present in database
Track 8 not present in database
Track 9 not present in database
Track 10 not present in database
Track 11 not present in database
Track 12 not present in database
Track 13 not present in database

None of the tracks are present in the AccurateRip database

End of status report

---- CUETools DB Plugin V2.1.6

[CTDB TOCID: rAzd9fZI1ks_Y_Xu2lLSBDDDNLs-] found
Submit result: already submitted
Track | CTDB Status
1 | (2/2) Accurately ripped
2 | (2/2) Accurately ripped
3 | (2/2) Accurately ripped
4 | (2/2) Accurately ripped
5 | (2/2) Accurately ripped
6 | (2/2) Accurately ripped
7 | (2/2) Accurately ripped
8 | (2/2) Accurately ripped
9 | (2/2) Accurately ripped
10 | (2/2) Accurately ripped
11 | (2/2) Accurately ripped
12 | (2/2) Accurately ripped
13 | (2/2) Accurately ripped

==== Log checksum 810C2570B6984B1A382DF5A7C8B4C76421175744C66EAD525AE6B65A6335B8E4 ====
REM GENRE "Blues Rock" 
REM DATE 2020
REM DISCID AA0D4C0D
REM COMMENT "ExactAudioCopy v1.3"
PERFORMER "Neal Black & The Healers"
TITLE "A Little Boom Boom Boom"
REM COMPOSER ""
FILE "Neal Black & The Healers - A Little Boom Boom Boom.Flac" WAVE
TRACK 01 AUDIO
TITLE "Don't Follow Me There"
PERFORMER "Neal Black & The Healers"
REM COMPOSER ""
INDEX 01 00:00:00
TRACK 02 AUDIO
TITLE "Why Do People Act Like That"
PERFORMER "Neal Black & The Healers"
REM COMPOSER ""
INDEX 01 05:31:12
TRACK 03 AUDIO
TITLE "All For Business"
PERFORMER "Neal Black & The Healers"
REM COMPOSER ""
INDEX 01 09:44:10
TRACK 04 AUDIO
TITLE "Green Bean Swing"
PERFORMER "Neal Black & The Healers"
REM COMPOSER ""
INDEX 01 14:38:70
TRACK 05 AUDIO
TITLE "Little Boom Boom Boom"
PERFORMER "Neal Black & The Healers"
REM COMPOSER ""
INDEX 01 18:02:34
TRACK 06 AUDIO
TITLE "Never Been Lucky"
PERFORMER "Neal Black & The Healers"
REM COMPOSER ""
INDEX 01 22:12:64
TRACK 07 AUDIO
TITLE "Shoeshine Shuffle"
PERFORMER "Neal Black & The Healers"
REM COMPOSER ""
INDEX 01 26:49:19
TRACK 08 AUDIO
TITLE "Break A Promise"
PERFORMER "Neal Black & The Healers"
REM COMPOSER ""
INDEX 01 30:53:68
TRACK 09 AUDIO
TITLE "Forgive Yourself"
PERFORMER "Neal Black & The Healers"
REM COMPOSER ""
INDEX 01 34:58:54
TRACK 10 AUDIO
TITLE "Saints Of New Orleans"
PERFORMER "Neal Black & The Healers"
REM COMPOSER ""
INDEX 01 38:14:51
TRACK 11 AUDIO
TITLE "Going Down Together"
PERFORMER "Neal Black & The Healers"
REM COMPOSER ""
INDEX 01 42:39:48
TRACK 12 AUDIO
TITLE "Alabama Flamenco"
PERFORMER "Neal Black & The Healers"
REM COMPOSER ""
INDEX 01 47:07:63
TRACK 13 AUDIO
TITLE "Secrets"
PERFORMER "Neal Black & The Healers"
REM COMPOSER ""
INDEX 01 52:16:70

Этот торрент недоступен для скачивания без регистрации, однако доступен по публичной magnet-ссылке (источники с публичных трекеров). Перед использованием ссылки прочтите, пожалуйста Пользовательское соглашение, а также как можно дольше оставайтесь на раздаче! Для того, чтобы скачать сам торрент-файл (который видит больше источников), а также для того, чтобы поблагодарить релизера, вам необходимо зарегистрироваться. Если регистрироваться лень - вы можете также попробовать скачать релиз по нашим партнерским ссылкам ниже. Кроме того, зарегистрированным пользователям не показывается всплывающая реклама при скачивании.

[underver.se].t179470.torrent
Трекер: Зарегистрирован   [ 06.09.2020 17:46 ]  
Статус: проверено (by Бишеп at 06.09.2020 17:46)
Поблагодарили: 1 человек
Тип торрента: публичный - доступные источники с открытых трекеров: 
Размер: 377 MB (занимает 0.08 DVDR, для записи нужно 1 болванка DVDR/RW)
 
 

Яндекс.Метрика powered by Sphinx


В Н И М А Н И Е
Сайт не распространяет и не хранит электронные версии произведений, а лишь бесплатно и без коммерческой выгоды (не требуя взамен платы,
SMS и т.д.) предоставляет доступ к создаваемому пользователями каталогу ссылок на торрент-файлы, которые содержат только списки хеш-сумм.
Убедительная просьба с жалобами обращаться напрямую к пользователю, разместившему торрент файл.

Вверх