Loading...
Error

(Vocal) Иван Козловский - Grand Collection. Часть 1 / Часть 2 (2006) [FLAC (Tracks+.CUE), lossless]

Статистика раздачи
Размер:  705 MB   |    Зарегистрирован:  9 лет 5 месяцев   |    Скачан:  18 раз

Полного источника не было: 5 дней

Сидов:  0  |  0 KB/s  ]   Личеров:  0  |  0 KB/s  ]

* - сиды/пиры с внешних источников

   
 
Автор Сообщение

garry Пол:Муж

13-Ноя-2011 20:58

Иван Козловский - Grand Collection. Часть 1 / Часть 2

Жанр: Vocal
Год выпуска: 2006
Производитель диска: Россия
Аудиокодек: FLAC
Тип рипа: Tracks+.CUE
Битрейт аудио: lossless
Продолжительность: 01:06:16 / CD2 - 01:18:39
01. Народная - Засвистали козаченьки
02. Народная - Дивлюсь я на небо
03. Народная - Чорнii брови, карii очі
04. Народная - Гуляв чумак на риночку
05. Народная - Ой, у полi криниченька
06. Народная - Ой, зiди, зiди ясен мiсяцю
07. Народная - Ой, дiвчина, шумить гай
08. Народная - Реве да стогне Днiпр широкий
09. Народная - Їхав козак на вiйноньку
10. Народная - Гей, на високiй полонинi
11. Народная - Повiй вiтре на Вкраiну
12. Народная - Без тебе Олесю
13. Народная - По садочку хожу
14. Народная - Коли розлучаються двоє
15. Народная - Де ти бродиш, моя доле
16. Народная - Сонце низенько, вечiр близенько
17. Николай Лысенко - Огнi горять
Exact Audio Copy V0.99 prebeta 5 from 4. May 2009

EAC extraction logfile from 26. February 2011, 21:57

Иван Козловский / Grand Collection. Часть 1

Used drive : HL-DT-STDVDRAM GSA-H10N Adapter: 1 ID: 0

Read mode : Secure
Utilize accurate stream : Yes
Defeat audio cache : Yes
Make use of C2 pointers : No

Read offset correction : 667
Overread into Lead-In and Lead-Out : No
Fill up missing offset samples with silence : Yes
Delete leading and trailing silent blocks : No
Null samples used in CRC calculations : Yes
Used interface : Native Win32 interface for Win NT & 2000
Gap handling : Appended to previous track

Used output format : User Defined Encoder
Selected bitrate : 768 kBit/s
Quality : High
Add ID3 tag : No
Command line compressor : C:\Program Files\Exact Audio Copy\FLAC\FLAC.EXE
Additional command line options : -8 -V -T "ARTIST=%a" -T "TITLE=%t" -T "ALBUM=%g" -T "DATE=%y" -T "TRACKNUMBER=%n" -T "GENRE=%m" -T "COMMENT=EAC FLAC -8" %s

TOC of the extracted CD

Track | Start | Length | Start sector | End sector
---------------------------------------------------------
1 | 0:00.00 | 2:58.14 | 0 | 13363
2 | 2:58.14 | 3:51.41 | 13364 | 30729
3 | 6:49.55 | 2:10.57 | 30730 | 40536
4 | 9:00.37 | 4:04.18 | 40537 | 58854
5 | 13:04.55 | 5:27.34 | 58855 | 83413
6 | 18:32.14 | 7:43.08 | 83414 | 118146
7 | 26:15.22 | 4:31.03 | 118147 | 138474
8 | 30:46.25 | 4:53.45 | 138475 | 160494
9 | 35:39.70 | 2:43.37 | 160495 | 172756
10 | 38:23.32 | 2:57.55 | 172757 | 186086
11 | 41:21.12 | 3:38.37 | 186087 | 202473
12 | 44:59.49 | 4:16.20 | 202474 | 221693
13 | 49:15.69 | 3:42.05 | 221694 | 238348
14 | 52:57.74 | 2:49.03 | 238349 | 251026
15 | 55:47.02 | 5:28.30 | 251027 | 275656
16 | 61:15.32 | 2:57.20 | 275657 | 288951
17 | 64:12.52 | 2:09.35 | 288952 | 298661

Track 1

Filename C:\Documents and Settings\gari\Мои документы\OutputMP3\01. Засвистали козаченьки.wav

Pre-gap length 0:00:02.00

Peak level 100.0 %
Track quality 100.0 %
Test CRC 6E3E3F41
Copy CRC 6E3E3F41
Track not present in AccurateRip database
Copy OK

Track 2

Filename C:\Documents and Settings\gari\Мои документы\OutputMP3\02. Дивлюсь я на небо.wav

Pre-gap length 0:00:03.00

Peak level 98.4 %
Track quality 100.0 %
Test CRC 0F35B116
Copy CRC 0F35B116
Track not present in AccurateRip database
Copy OK

Track 3

Filename C:\Documents and Settings\gari\Мои документы\OutputMP3\03. Чорнii брови, корii очі.wav

Pre-gap length 0:00:03.00

Peak level 84.7 %
Track quality 100.0 %
Test CRC 3C6D8F2D
Copy CRC 3C6D8F2D
Track not present in AccurateRip database
Copy OK

Track 4

Filename C:\Documents and Settings\gari\Мои документы\OutputMP3\04. Гуляв чумак на риночку.wav

Pre-gap length 0:00:03.00

Peak level 97.5 %
Track quality 100.0 %
Test CRC 94FB8E41
Copy CRC 94FB8E41
Track not present in AccurateRip database
Copy OK

Track 5

Filename C:\Documents and Settings\gari\Мои документы\OutputMP3\05. Ой, у полi криниченька.wav

Pre-gap length 0:00:03.00

Peak level 98.4 %
Track quality 100.0 %
Test CRC F938609B
Copy CRC F938609B
Track not present in AccurateRip database
Copy OK

Track 6

Filename C:\Documents and Settings\gari\Мои документы\OutputMP3\06. Ой, зiди, зiди ясен мiсяцю.wav

Pre-gap length 0:00:03.00

Peak level 87.6 %
Track quality 100.0 %
Test CRC 62977A35
Copy CRC 62977A35
Track not present in AccurateRip database
Copy OK

Track 7

Filename C:\Documents and Settings\gari\Мои документы\OutputMP3\07. Ой, дiвчина, шумить гай.wav

Pre-gap length 0:00:03.00

Peak level 98.0 %
Track quality 100.0 %
Test CRC 922C4F50
Copy CRC 922C4F50
Track not present in AccurateRip database
Copy OK

Track 8

Filename C:\Documents and Settings\gari\Мои документы\OutputMP3\08. Реве да стогне Днiпр широкий.wav

Pre-gap length 0:00:03.00

Peak level 98.9 %
Track quality 100.0 %
Test CRC 92B35823
Copy CRC 92B35823
Track not present in AccurateRip database
Copy OK

Track 9

Filename C:\Documents and Settings\gari\Мои документы\OutputMP3\09. Їхав козак на вiйноньку.wav

Pre-gap length 0:00:03.00

Peak level 97.7 %
Track quality 100.0 %
Test CRC 13CB92B4
Copy CRC 13CB92B4
Track not present in AccurateRip database
Copy OK

Track 10

Filename C:\Documents and Settings\gari\Мои документы\OutputMP3\10. Гей, на високiй полонинi.wav

Pre-gap length 0:00:03.00

Peak level 98.2 %
Track quality 100.0 %
Test CRC 608B7D69
Copy CRC 608B7D69
Track not present in AccurateRip database
Copy OK

Track 11

Filename C:\Documents and Settings\gari\Мои документы\OutputMP3\11. Повiй вiтре на Вкраiну.wav

Pre-gap length 0:00:03.00

Peak level 98.9 %
Track quality 99.9 %
Test CRC A992770F
Copy CRC A992770F
Track not present in AccurateRip database
Copy OK

Track 12

Filename C:\Documents and Settings\gari\Мои документы\OutputMP3\12. Без тебе Олесю.wav

Pre-gap length 0:00:03.00

Peak level 98.3 %
Track quality 100.0 %
Test CRC A3B1282D
Copy CRC A3B1282D
Track not present in AccurateRip database
Copy OK

Track 13

Filename C:\Documents and Settings\gari\Мои документы\OutputMP3\13. По садочку хожу.wav

Pre-gap length 0:00:03.00

Peak level 100.0 %
Track quality 100.0 %
Test CRC 3971E13F
Copy CRC 3971E13F
Track not present in AccurateRip database
Copy OK

Track 14

Filename C:\Documents and Settings\gari\Мои документы\OutputMP3\14. Коли розлучаються двоє.wav

Pre-gap length 0:00:03.00

Peak level 92.5 %
Track quality 100.0 %
Test CRC F0245EA0
Copy CRC F0245EA0
Track not present in AccurateRip database
Copy OK

Track 15

Filename C:\Documents and Settings\gari\Мои документы\OutputMP3\15. Де ти бродиш, моя доле.wav

Pre-gap length 0:00:03.00

Peak level 98.1 %
Track quality 99.9 %
Test CRC 41575AD7
Copy CRC 41575AD7
Track not present in AccurateRip database
Copy OK

Track 16

Filename C:\Documents and Settings\gari\Мои документы\OutputMP3\16. Сонце низенько, вечiр близенько.wav

Pre-gap length 0:00:03.00

Peak level 100.0 %
Track quality 100.0 %
Test CRC 96FE9884
Copy CRC 96FE9884
Track not present in AccurateRip database
Copy OK

Track 17

Filename C:\Documents and Settings\gari\Мои документы\OutputMP3\17. Огнi горять.wav

Pre-gap length 0:00:03.00

Peak level 100.0 %
Track quality 100.0 %
Test CRC 9B9C8962
Copy CRC 9B9C8962
Track not present in AccurateRip database
Copy OK

None of the tracks are present in the AccurateRip database

No errors occurred

End of status report
01. Михаил Глинка - Я помню чудное мгновение
02. Петр Чайковский - Средь шумного бала
03. Леонид Малашкин - Я встретил Вас
04. Петр Булахов - Не пробуждай воспоминания
05. Николай Титов - Я знал ее милым ребенком
06. Матвей Блантер - Гитара
07. Илья Шатров - На сопках Маньчжурии
08. Сергей Рахманинов - Вокализ
09. Петр Чайковский - Ария Ленского (из оперы 'Евгений Онегин')
10. Ruggero Leoncavallo - Серенада Арлекина (из оперы 'Паяцы')
11. Giuseppe Verdi - Песенка герцога (из оперы 'Риголетто')
12. Giuseppe Verdi - Застольная песня ( из оперы 'Травиата')
13. Модест Мусоргский - Сцена юродивого (из оперы 'Борис Годунов')
14. Сергей Василенко - Девушка пела в цурковном хоре
15. Александр Архангельский - Блажен разумеваяй
16. Павел Чесноков - Разбойника благоразумного
17. Старинный распев - Ты есть таков
Exact Audio Copy V0.99 prebeta 5 from 4. May 2009

EAC extraction logfile from 11. March 2011, 22:01

Иван Козловский / Grand Collection. Часть 2

Used drive : SONY CD-RW CRX230ED Adapter: 1 ID: 0

Read mode : Secure
Utilize accurate stream : Yes
Defeat audio cache : Yes
Make use of C2 pointers : No

Read offset correction : 6
Overread into Lead-In and Lead-Out : No
Fill up missing offset samples with silence : Yes
Delete leading and trailing silent blocks : No
Null samples used in CRC calculations : Yes
Used interface : Native Win32 interface for Win NT & 2000
Gap handling : Appended to previous track

Used output format : User Defined Encoder
Selected bitrate : 768 kBit/s
Quality : High
Add ID3 tag : No
Command line compressor : C:\Program Files\Exact Audio Copy\FLAC\FLAC.EXE
Additional command line options : -8 -V -T "ARTIST=%a" -T "TITLE=%t" -T "ALBUM=%g" -T "DATE=%y" -T "TRACKNUMBER=%n" -T "GENRE=%m" -T "COMMENT=EAC FLAC -8" %s

TOC of the extracted CD

Track | Start | Length | Start sector | End sector
---------------------------------------------------------
1 | 0:00.00 | 3:44.32 | 0 | 16831
2 | 3:44.32 | 2:25.60 | 16832 | 27766
3 | 6:10.17 | 7:18.15 | 27767 | 60631
4 | 13:28.32 | 5:46.02 | 60632 | 86583
5 | 19:14.34 | 3:30.31 | 86584 | 102364
6 | 22:44.65 | 3:26.22 | 102365 | 117836
7 | 26:11.12 | 2:42.63 | 117837 | 130049
8 | 28:54.00 | 6:59.59 | 130050 | 161533
9 | 35:53.59 | 7:48.29 | 161534 | 196662
10 | 43:42.13 | 2:13.60 | 196663 | 206697
11 | 45:55.73 | 2:25.69 | 206698 | 217641
12 | 48:21.67 | 3:04.14 | 217642 | 231455
13 | 51:26.06 | 9:21.32 | 231456 | 273562
14 | 60:47.38 | 4:13.59 | 273563 | 292596
15 | 65:01.22 | 8:45.44 | 292597 | 332015
16 | 73:46.66 | 3:07.58 | 332016 | 346098
17 | 76:54.49 | 1:53.49 | 346099 | 354622

Track 1

Filename C:\Documents and Settings\gari\Мои документы\OutputMP3\01. Я помню чудное мгновение.wav

Pre-gap length 0:00:02.00

Peak level 98.0 %
Track quality 100.0 %
Test CRC 47612BF2
Copy CRC 47612BF2
Copy OK

Track 2

Filename C:\Documents and Settings\gari\Мои документы\OutputMP3\02. Средь шумного бала.wav

Pre-gap length 0:00:03.00

Peak level 100.0 %
Track quality 99.9 %
Test CRC 8F149E78
Copy CRC 8F149E78
Copy OK

Track 3

Filename C:\Documents and Settings\gari\Мои документы\OutputMP3\03. Я встретил Вас.wav

Pre-gap length 0:00:03.00

Peak level 98.0 %
Track quality 100.0 %
Test CRC 700822E5
Copy CRC 700822E5
Copy OK

Track 4

Filename C:\Documents and Settings\gari\Мои документы\OutputMP3\04. Не пробуждай воспоминания.wav

Pre-gap length 0:00:03.00

Peak level 98.0 %
Track quality 99.9 %
Test CRC 8C66E8CE
Copy CRC 8C66E8CE
Copy OK

Track 5

Filename C:\Documents and Settings\gari\Мои документы\OutputMP3\05. Я знал ее милым ребенком.wav

Pre-gap length 0:00:03.00

Peak level 100.0 %
Track quality 100.0 %
Test CRC 28B9C249
Copy CRC 28B9C249
Copy OK

Track 6

Filename C:\Documents and Settings\gari\Мои документы\OutputMP3\06. Гитара.wav

Pre-gap length 0:00:03.00

Peak level 98.0 %
Track quality 100.0 %
Test CRC 51CD2104
Copy CRC 51CD2104
Copy OK

Track 7

Filename C:\Documents and Settings\gari\Мои документы\OutputMP3\07. На сопках Маньчжурии.wav

Pre-gap length 0:00:03.00

Peak level 98.0 %
Track quality 100.0 %
Test CRC 22A5EAB6
Copy CRC 22A5EAB6
Copy OK

Track 8

Filename C:\Documents and Settings\gari\Мои документы\OutputMP3\08. Вокализ.wav

Pre-gap length 0:00:03.00

Peak level 98.0 %
Track quality 100.0 %
Test CRC 3420596B
Copy CRC 3420596B
Copy OK

Track 9

Filename C:\Documents and Settings\gari\Мои документы\OutputMP3\09. Ария Ленского (из оперы 'Евгений Онегин').wav

Pre-gap length 0:00:03.00

Peak level 98.0 %
Track quality 100.0 %
Test CRC 3AC46C33
Copy CRC 3AC46C33
Copy OK

Track 10

Filename C:\Documents and Settings\gari\Мои документы\OutputMP3\10. Серенада Арлекина (из оперы 'Паяцы').wav

Pre-gap length 0:00:03.00

Peak level 98.0 %
Track quality 99.9 %
Test CRC DD5E8EA7
Copy CRC DD5E8EA7
Copy OK

Track 11

Filename C:\Documents and Settings\gari\Мои документы\OutputMP3\11. Песенка герцога (из оперы 'Риголетто').wav

Pre-gap length 0:00:03.00

Peak level 98.0 %
Track quality 100.0 %
Test CRC 7BFAF560
Copy CRC 7BFAF560
Copy OK

Track 12

Filename C:\Documents and Settings\gari\Мои документы\OutputMP3\12. Застольная песня ( из оперы 'Травиата').wav

Pre-gap length 0:00:03.00

Peak level 71.9 %
Track quality 100.0 %
Test CRC 429C401C
Copy CRC 429C401C
Copy OK

Track 13

Filename C:\Documents and Settings\gari\Мои документы\OutputMP3\13. Сцена юродивого (из оперы 'Борис Годунов').wav

Pre-gap length 0:00:03.00

Peak level 98.0 %
Track quality 100.0 %
Test CRC 61F3A0BC
Copy CRC 61F3A0BC
Copy OK

Track 14

Filename C:\Documents and Settings\gari\Мои документы\OutputMP3\14. Девушка пела.wav

Pre-gap length 0:00:03.00

Peak level 100.0 %
Track quality 100.0 %
Test CRC F53A8FA4
Copy CRC F53A8FA4
Copy OK

Track 15

Filename C:\Documents and Settings\gari\Мои документы\OutputMP3\15. Блажен разумеваяй.wav

Pre-gap length 0:00:03.00

Peak level 100.0 %
Track quality 100.0 %
Test CRC E2067AEC
Copy CRC E2067AEC
Copy OK

Track 16

Filename C:\Documents and Settings\gari\Мои документы\OutputMP3\16. Разбойника благоразумного.wav

Pre-gap length 0:00:03.00

Peak level 100.0 %
Track quality 100.0 %
Test CRC 047BACC7
Copy CRC 047BACC7
Copy OK

Track 17

Filename C:\Documents and Settings\gari\Мои документы\OutputMP3\17. Ты есть таков.wav

Pre-gap length 0:00:03.00

Peak level 100.0 %
Track quality 100.0 %
Test CRC E2CC56E8
Copy CRC E2CC56E8
Copy OK

No errors occurred

End of status report

Этот торрент недоступен для скачивания без регистрации, однако доступен по публичной magnet-ссылке (источники с публичных трекеров). Перед использованием ссылки прочтите, пожалуйста Пользовательское соглашение, а также как можно дольше оставайтесь на раздаче! Для того, чтобы скачать сам торрент-файл (который видит больше источников), а также для того, чтобы поблагодарить релизера, вам необходимо зарегистрироваться. Если регистрироваться лень - вы можете также попробовать скачать релиз по нашим партнерским ссылкам ниже. Кроме того, зарегистрированным пользователям не показывается всплывающая реклама при скачивании.

[underverse.su].t16187.torrent
Трекер: Зарегистрирован   [ 13.11.2011 20:58 ]  

Статус: проверено (by garry at 13.11.2011 20:59)
Поблагодарили: пока никто не поблагодарил...
Тип торрента: публичный - доступные источники с открытых трекеров: 
Размер: 705 MB (занимает 0,16 DVDR, для записи нужно 1 болванка DVDR/RW)
 
 

Яндекс.Метрика powered by Sphinx


В Н И М А Н И Е
Сайт не распространяет и не хранит электронные версии произведений, а лишь бесплатно и без коммерческой выгоды (не требуя взамен платы,
SMS и т.д.) предоставляет доступ к создаваемому пользователями каталогу ссылок на торрент-файлы, которые содержат только списки хеш-сумм.
Убедительная просьба с жалобами обращаться напрямую к пользователю, разместившему торрент файл.

Вверх