Loading...
Error

Легенда Пустыни / Da Mo Jiang Hu / Desert Legend (Цзинь Лицзюнь) [2020 г., драма, приключения, WEBRip 1080p] DVO (East Dream)

Статистика раздачи
Размер:  1,34 GB   |    Зарегистрирован:  15 дней   |    Скачан:  6 раз

Полного источника не было: 1 день 22 часа

Сидов:  0  |  0 KB/s  ]   Личеров:  0  |  0 KB/s  ]

* - сиды/пиры с внешних источников

   
 
Автор Сообщение

makkol Пол:Муж

15-Сен-2020 22:26

Легенда Пустыни / Da Mo Jiang Hu / Desert Legend


Год выпуска: 2020
Жанр: драма, приключения
Страна: Китай
Режиссер: Цзинь Лицзюнь
В ролях: Стивен Сунь, Чжоу Цзы Си, Ли Ли-Чунь
Сюжет фильма:
Маленький кузнец Лю Сань Сы, мечтающий стать героем, сталкивается со своим кумиром доблестным героем Бай Ли У Ю и сопровождает с ним женщину из Стражей Запада Хэ Цин Ин. Однако Хэ Цин Ин рассказывает ему другую историю. Она утверждает, что на самом деле она доблестный человек, которого схватили Стражи Запада, а Бай Ли У Ю - прислужник, предавший правосудие! Лю Сань Сы должен тщательно отличить правду от лжи. Справедливость и зло трудно отличить. Теперь Лю Сань Сы считает, что мир полностью отличается от того, что он себе представлял...

  • Мировая премьера: 9 марта 2020


Качество видео: WEBRip 1080p

Продолжительность: 01:24:06
Формат: MKV
Видео: MPEG-4 AVC, 1920x1080 (16:9), 24.000 fps, 2088 kbps
Аудио: русский, любительский двухголосый закадровый (East Dream), AC3 2.0, 48 kHz, 192 kbps
Субтитры: китайские вшитые неотключаемые

Код:

General
Unique ID : 205347708394363525518696244939232478544 (0x9A7C87B2108A1FC52F1D524AF5158550)
Complete name : Desert.Legend.2020.WEBRip.1080p.AVC.AC3.East_Dream.mkv
Format : Matroska
Format version : Version 4
File size : 1.34 GiB
Duration : 1 h 24 min
Overall bit rate : 2 282 kb/s
Encoded date : UTC 2020-08-13 16:02:43
Writing application : mkvmerge v33.1.0 ('Primrose') 64-bit
Writing library : libebml v1.3.7 + libmatroska v1.5.0

Video
ID : 1
Format : AVC
Format/Info : Advanced Video Codec
Format profile : High@L4
Format settings : CABAC / 3 Ref Frames
Format settings, CABAC : Yes
Format settings, Reference frames : 3 frames
Codec ID : V_MPEG4/ISO/AVC
Duration : 1 h 24 min
Bit rate : 2 088 kb/s
Width : 1 920 pixels
Height : 1 080 pixels
Display aspect ratio : 16:9
Frame rate mode : Constant
Frame rate : 24.000 FPS
Color space : YUV
Chroma subsampling : 4:2:0
Bit depth : 8 bits
Scan type : Progressive
Bits/(Pixel*Frame) : 0.042
Stream size : 1.23 GiB (92%)
Default : Yes
Forced : No
Color range : Limited
Color primaries : BT.709
Transfer characteristics : BT.709
Matrix coefficients : BT.709

Audio
ID : 2
Format : AC-3
Format/Info : Audio Coding 3
Commercial name : Dolby Digital
Codec ID : A_AC3
Duration : 1 h 24 min
Bit rate mode : Constant
Bit rate : 192 kb/s
Channel(s) : 2 channels
Channel layout : L R
Sampling rate : 48.0 kHz
Frame rate : 31.250 FPS (1536 SPF)
Compression mode : Lossy
Stream size : 116 MiB (8%)
Service kind : Complete Main
Default : Yes
Forced : No

Этот торрент недоступен для скачивания без регистрации, однако доступен по публичной magnet-ссылке (источники с публичных трекеров). Перед использованием ссылки прочтите, пожалуйста Пользовательское соглашение, а также как можно дольше оставайтесь на раздаче! Для того, чтобы скачать сам торрент-файл (который видит больше источников), а также для того, чтобы поблагодарить релизера, вам необходимо зарегистрироваться. Если регистрироваться лень - вы можете также попробовать скачать релиз по нашим партнерским ссылкам ниже. Кроме того, зарегистрированным пользователям не показывается всплывающая реклама при скачивании.

[underver.se].t180608.torrent
Трекер: Зарегистрирован   [ 15.09.2020 22:26 ]  

Статус: проверено (by makkol at 15.09.2020 22:27)
Поблагодарили: 1 человек
Тип торрента: публичный - доступные источники с открытых трекеров: 
Размер: 1,34 GB (занимает 0,31 DVDR, для записи нужно 1 болванка DVDR/RW)
 
 

Яндекс.Метрика powered by Sphinx


В Н И М А Н И Е
Сайт не распространяет и не хранит электронные версии произведений, а лишь бесплатно и без коммерческой выгоды (не требуя взамен платы,
SMS и т.д.) предоставляет доступ к создаваемому пользователями каталогу ссылок на торрент-файлы, которые содержат только списки хеш-сумм.
Убедительная просьба с жалобами обращаться напрямую к пользователю, разместившему торрент файл.

Вверх