Loading...
Error

(Classical) Московский камерный оркестр - Grand Collection (2008) [FLAC (Tracks+.CUE), lossless]

Статистика раздачи
Размер:  444 MB   |    Зарегистрирован:  9 лет 3 месяца   |    Скачан:  46 раз

Полного источника не было: 7 дней

Сидов:  0  |  0 KB/s  ]   Личеров:  0  |  0 KB/s  ]

* - сиды/пиры с внешних источников

   
 
Автор Сообщение

garry Пол:Муж

25-Дек-2011 19:03

Московский камерный оркестр - Grand Collection

Жанр: Classical
Год выпуска: 2008
Производитель диска: Россия
Аудиокодек: FLAC
Тип рипа: Tracks+.CUE
Битрейт аудио: lossless
Продолжительность: 01:19:49

Треклист:

01 - Allegro (Концерт для 4-х скрипок и виолончели в си-миноре, оп. 3 соч. №10)
02 - Полет шмеля
03 - Романс (Концерт №20 (ре-минор) для фортепиано с оркестром, К. 466)
04 - Il Barbiere Di Siviglia
05 - Прелюдия к сюите ''Из времен Хольберга'', оп. 40
06 - Анданте (Концерт №21 (до-мажор) для фортепиано с оркестром, К. 467)
07 - Вальс из ''Серенады для струнного оркестра'' оп. 48
08 - Декабрь (''Святки'') из музыкального цикла ''Времена года''
09 - Larghetto (Концерт для 4-х скрипок и виолончели в си-миноре, оп. 3 соч. №10)
10 - La Gazza Labra
11 - Мелодия из цикла ''Воспоминания о дорогом месте''
12 - Il Signor Bruschino
13 - Меланхолическая серенада, оп. 26
14 - Allegro (Концерт для 4-х скрипок и виолончели в си-миноре, оп. 3 соч. №10)
15 - Светит месяц, светит ясный (народная)
16 - Allegro (Концерт для гобоя и скрипки)
Exact Audio Copy V1.0 beta 3 from 29. August 2011

EAC extraction logfile from 10. December 2011, 23:15

Московский камерный оркестр / Grand Collection

Used drive : SONY CD-RW CRX230ED Adapter: 1 ID: 0

Read mode : Secure
Utilize accurate stream : Yes
Defeat audio cache : Yes
Make use of C2 pointers : No

Read offset correction : 6
Overread into Lead-In and Lead-Out : No
Fill up missing offset samples with silence : Yes
Delete leading and trailing silent blocks : No
Null samples used in CRC calculations : Yes
Used interface : Native Win32 interface for Win NT & 2000
Gap handling : Appended to previous track

Used output format : User Defined Encoder
Selected bitrate : 1024 kBit/s
Quality : High
Add ID3 tag : No
Command line compressor : C:\Program Files (x86)\Exact Audio Copy\Flac\flac.exe
Additional command line options : -V -8 -T "Genre=%genre%" -T "Artist=%artist%" -T "Title=%title%" -T "Album=%albumtitle%" -T "Date=%year%" -T "Tracknumber=%tracknr%" -T "Comment=%comment%" %source%

TOC of the extracted CD

Track | Start | Length | Start sector | End sector
---------------------------------------------------------
1 | 0:00.00 | 3:16.16 | 0 | 14715
2 | 3:16.16 | 1:08.42 | 14716 | 19857
3 | 4:24.58 | 9:33.44 | 19858 | 62876
4 | 13:58.27 | 7:04.06 | 62877 | 94682
5 | 21:02.33 | 2:38.62 | 94683 | 106594
6 | 23:41.20 | 7:19.63 | 106595 | 139582
7 | 31:01.08 | 3:55.27 | 139583 | 157234
8 | 34:56.35 | 4:26.57 | 157235 | 177241
9 | 39:23.17 | 2:50.42 | 177242 | 190033
10 | 42:13.59 | 9:47.33 | 190034 | 234091
11 | 52:01.17 | 3:38.56 | 234092 | 250497
12 | 55:39.73 | 4:52.64 | 250498 | 272461
13 | 60:32.62 | 8:45.44 | 272462 | 311880
14 | 69:18.31 | 3:40.06 | 311881 | 328386
15 | 72:58.37 | 3:41.67 | 328387 | 345028
16 | 76:40.29 | 3:17.37 | 345029 | 359840

Track 1

Filename C:\Users\gari\Documents\!Temp\01 - Allegro (Концерт для 4-х скрипок и виолончели в си-миноре, оп. 3 соч. №10).wav

Pre-gap length 0:00:02.00

Peak level 99.0 %
Extraction speed 4.0 X
Track quality 99.9 %
Test CRC 7D69637D
Copy CRC 7D69637D
Track not present in AccurateRip database
Copy OK

Track 2

Filename C:\Users\gari\Documents\!Temp\02 - Полет шмеля.wav

Pre-gap length 0:00:02.00

Peak level 97.0 %
Extraction speed 4.2 X
Track quality 100.0 %
Test CRC D1CF8981
Copy CRC D1CF8981
Track not present in AccurateRip database
Copy OK

Track 3

Filename C:\Users\gari\Documents\!Temp\03 - Романс (Концерт №20 (ре-минор) для фортепиано с оркестром, К. 466).wav

Pre-gap length 0:00:02.00

Peak level 85.1 %
Extraction speed 6.6 X
Track quality 100.0 %
Test CRC 2DB06141
Copy CRC 2DB06141
Track not present in AccurateRip database
Copy OK

Track 4

Filename C:\Users\gari\Documents\!Temp\04 - Il Barbiere Di Siviglia.wav

Pre-gap length 0:00:02.00

Peak level 98.0 %
Extraction speed 7.3 X
Track quality 100.0 %
Test CRC 3A8FC2CA
Copy CRC 3A8FC2CA
Track not present in AccurateRip database
Copy OK

Track 5

Filename C:\Users\gari\Documents\!Temp\05 - Прелюдия к сюите ''Из времен Хольберга'', оп. 40.wav

Pre-gap length 0:00:02.00

Peak level 97.5 %
Extraction speed 6.9 X
Track quality 100.0 %
Test CRC C578CF86
Copy CRC C578CF86
Track not present in AccurateRip database
Copy OK

Track 6

Filename C:\Users\gari\Documents\!Temp\06 - Анданте (Концерт №21 (до-мажор) для фортепиано с оркестром, К. 467).wav

Pre-gap length 0:00:02.00

Peak level 64.0 %
Extraction speed 8.2 X
Track quality 100.0 %
Test CRC BED6B249
Copy CRC BED6B249
Track not present in AccurateRip database
Copy OK

Track 7

Filename C:\Users\gari\Documents\!Temp\07 - Вальс из ''Серенады для струнного оркестра'' оп. 48.wav

Pre-gap length 0:00:02.00

Peak level 97.3 %
Extraction speed 6.5 X
Track quality 99.9 %
Test CRC C3A41C56
Copy CRC C3A41C56
Track not present in AccurateRip database
Copy OK

Track 8

Filename C:\Users\gari\Documents\!Temp\08 - Декабрь (''Святки'') из музыкального цикла ''Времена года''.wav

Pre-gap length 0:00:02.00

Peak level 92.3 %
Extraction speed 8.5 X
Track quality 100.0 %
Test CRC 7F6DD01E
Copy CRC 7F6DD01E
Track not present in AccurateRip database
Copy OK

Track 9

Filename C:\Users\gari\Documents\!Temp\09 - Larghetto (Концерт для 4-х скрипок и виолончели в си-миноре, оп. 3 соч. №10).wav

Pre-gap length 0:00:02.00

Peak level 54.5 %
Extraction speed 8.3 X
Track quality 100.0 %
Test CRC 2A587442
Copy CRC 2A587442
Track not present in AccurateRip database
Copy OK

Track 10

Filename C:\Users\gari\Documents\!Temp\10 - La Gazza Labra.wav

Pre-gap length 0:00:02.00

Peak level 100.0 %
Extraction speed 9.9 X
Track quality 100.0 %
Test CRC 4F713122
Copy CRC 4F713122
Track not present in AccurateRip database
Copy OK

Track 11

Filename C:\Users\gari\Documents\!Temp\11 - Мелодия из цикла ''Воспоминания о дорогом месте''.wav

Pre-gap length 0:00:02.00

Peak level 80.4 %
Extraction speed 9.5 X
Track quality 100.0 %
Test CRC 9E04008F
Copy CRC 9E04008F
Track not present in AccurateRip database
Copy OK

Track 12

Filename C:\Users\gari\Documents\!Temp\12 - Il Signor Bruschino.wav

Pre-gap length 0:00:02.00

Peak level 76.2 %
Extraction speed 10.0 X
Track quality 100.0 %
Test CRC 3A211ACA
Copy CRC 3A211ACA
Track not present in AccurateRip database
Copy OK

Track 13

Filename C:\Users\gari\Documents\!Temp\13 - Меланхолическая серенада, оп. 26.wav

Pre-gap length 0:00:02.00

Peak level 56.0 %
Extraction speed 10.9 X
Track quality 100.0 %
Test CRC 220CA341
Copy CRC 220CA341
Track not present in AccurateRip database
Copy OK

Track 14

Filename C:\Users\gari\Documents\!Temp\14 - Allegro (Концерт для 4-х скрипок и виолончели в си-миноре, оп. 3 соч. №10).wav

Pre-gap length 0:00:02.00

Peak level 76.5 %
Extraction speed 8.0 X
Track quality 99.9 %
Test CRC BD587D96
Copy CRC BD587D96
Track not present in AccurateRip database
Copy OK

Track 15

Filename C:\Users\gari\Documents\!Temp\15 - Светит месяц, светит ясный (народная).wav

Pre-gap length 0:00:02.00

Peak level 87.7 %
Extraction speed 10.6 X
Track quality 100.0 %
Test CRC F8BE0885
Copy CRC F8BE0885
Track not present in AccurateRip database
Copy OK

Track 16

Filename C:\Users\gari\Documents\!Temp\16 - Allegro (Концерт для гобоя и скрипки).wav

Pre-gap length 0:00:02.00

Peak level 78.1 %
Extraction speed 10.4 X
Track quality 100.0 %
Test CRC 97888680
Copy CRC 97888680
Track not present in AccurateRip database
Copy OK

None of the tracks are present in the AccurateRip database

No errors occurred

End of status report

==== Log checksum 03FD40E6DAD01F6D1461B79611522F4B5B90415D702018520741F24E282E0AA7 ====

Этот торрент недоступен для скачивания без регистрации, однако доступен по публичной magnet-ссылке (источники с публичных трекеров). Перед использованием ссылки прочтите, пожалуйста Пользовательское соглашение, а также как можно дольше оставайтесь на раздаче! Для того, чтобы скачать сам торрент-файл (который видит больше источников), а также для того, чтобы поблагодарить релизера, вам необходимо зарегистрироваться. Если регистрироваться лень - вы можете также попробовать скачать релиз по нашим партнерским ссылкам ниже. Кроме того, зарегистрированным пользователям не показывается всплывающая реклама при скачивании.

[underverse.su].t16552.torrent
Трекер: Зарегистрирован   [ 25.12.2011 19:13 ]  

Статус: проверено (by garry at 25.12.2011 19:14)
Поблагодарили: 4 человека
Тип торрента: публичный - доступные источники с открытых трекеров: 
Размер: 444 MB (занимает 0,1 DVDR, для записи нужно 1 болванка DVDR/RW)
 
 
Похожие темы
Форум Тема Автор Торрент Отв. Посл. сооб.
Сборники Pop, Disco, Dance (Classical, Piano) VA - Piano Covers: 14 Beautiful Piano Arrangements Of Pop Hits (2019) [MP3, 320 kbps CBR] 90ytr90
7 | 0

0 | 529

19

14.09.2019 07:27

Сборники Pop, Disco, Dance (Classical, Easy Listening, Jazz, Score, Ballad) VA - The Sound Of Musicals The Ultimate Collection (Box Set, 5CD) (2019) [MP3, 320 kbps CBR] Magnat
0 | 0

0 | 543

6

28.10.2019 11:46

Вокальные и хоровые искусства (Classical) Jamie Barton - All Who Wander (Mahler, Dvorak, Sibelius; Zeger) (2016) [MP3, 320 kbps CBR] Darkferse
1 | 0

0 | 1678

7

04.09.2017 21:29

Вокальные и хоровые искусства (Classical, Romantic) Elina Garanca, Orquestra de la Comunitat Valenciana, Roberto Abbado - Revive (2016) [MP3, 320 kbps CBR] Darkferse
0 | 0

0 | 1567

5

04.09.2017 21:42

Вокальные и хоровые искусства (Classical) Khoren Mekanejian - Khorenian Divine Liturgy (Choir of St. Gregory the Illuminator Cathedral) (2017) [MP3, 320 kbps CBR] Darkferse
0 | 1

0 | 1459

3

04.09.2017 22:35

Оркестровая музыка (Classical) Прокофьев - Complete Symphonies/Полное собрание Симфоний [Валерий Гергиев, London Symphony Orchestra] (2006) [MP3, 320 kbps] Jimmy
0 | 0

0 | 3864

27

18.12.2013 17:55

Оркестровая музыка (Classical) Прокофьев - Complete Piano Concertos/Полное собрание Концертов для фортепиано [Александр Торадзе, Валерий Гергиев] (1997) [MP3, 320 kbps] Jimmy
0 | 0

0 | 3936

19

19.12.2013 16:52

Оркестровая музыка (Classical) Beethoven/Бетховен - Complete Symphonies and Piano Concertos/Полное собрание Симфоний и Концертов для фортепиано [Otto Klemperer, Daniel Barenboim] (2000) [MP3, 320 kbps] Jimmy
1 | 1

0 | 4777

38

24.12.2013 15:37

Оркестровая музыка (Classical) Шостакович - Полное собрание Симфоний / Complete Symphonies (Василий Петренко / Vasily Petrenko) (2015) [MP3, 320 kbps CBR] Darkferse
1 | 0

0 | 1559

17

28.12.2017 00:17

Камерная и инструментальная музыка (Classical) Вольфганг Амадей Моцарт / Wolfgang Amadeus Mozart - Romantic Classic (1999) [MP3, 320 kbps CBR] terra07
2 | 0

1 | 5487

80

13.04.2015 16:28



Последний раз редактировалось: garry (04.07.2016 14:02), всего редактировалось 1 раз

osenka80 

24-Июн-2012 12:13

:Rose:

Яндекс.Метрика powered by Sphinx


В Н И М А Н И Е
Сайт не распространяет и не хранит электронные версии произведений, а лишь бесплатно и без коммерческой выгоды (не требуя взамен платы,
SMS и т.д.) предоставляет доступ к создаваемому пользователями каталогу ссылок на торрент-файлы, которые содержат только списки хеш-сумм.
Убедительная просьба с жалобами обращаться напрямую к пользователю, разместившему торрент файл.

Вверх