Loading...
Error

(Retro) Петр Лещенко - Grand Collection (2006) [FLAC (Tracks+.CUE), lossless]

Статистика раздачи
Размер:  349 MB   |    Зарегистрирован:  9 лет 2 месяца   |    Скачан:  22 раза

Полного источника не было: 3 месяца 4 дня

Сидов:  0  |  0 KB/s  ]   Личеров:  0  |  0 KB/s  ]

* - сиды/пиры с внешних источников

   
 
Автор Сообщение

garry Пол:Муж

30-Дек-2011 16:16

Петр Лещенко - Grand Collection

Жанр: Retro
Год выпуска: 2006
Производитель диска: Россия, Квадро-Диск
Аудиокодек: FLAC
Тип рипа: Tracks+.CUE
Битрейт аудио: lossless
Продолжительность: 01:16:50
01 - Скажите, почему
02 - Черные глаза
03 - Вино любви
04 - Пой цыган, плачь цыган
05 - Жизнь цыганская
06 - Прощая, мой табор
07 - Барселона
08 - Мое последнее танго
09 - Моя Марусечка
10 - Дуня (Блины)
11 - У самовара
12 - Туманно на душе
13 - Мрачное воскресенье
14 - Ты едешь пьяная
15 - Веселись, душа
16 - Пой, цыгане
17 - И льется песня
18 - Синяя рапсодия
19 - Старинный вальс
20 - Две гитары
21 - Все лгут цыгане
22 - Хорош мальчик уродился
23 - Что мне горе
24 - Мы с тобой цыгане
Exact Audio Copy V1.0 beta 3 from 29. August 2011

EAC extraction logfile from 12. December 2011, 19:36

Петр Лещенко / Grand Collection

Used drive : SONY CD-RW CRX230ED Adapter: 1 ID: 0

Read mode : Secure
Utilize accurate stream : Yes
Defeat audio cache : Yes
Make use of C2 pointers : No

Read offset correction : 6
Overread into Lead-In and Lead-Out : No
Fill up missing offset samples with silence : Yes
Delete leading and trailing silent blocks : No
Null samples used in CRC calculations : Yes
Used interface : Native Win32 interface for Win NT & 2000
Gap handling : Appended to previous track

Used output format : User Defined Encoder
Selected bitrate : 1024 kBit/s
Quality : High
Add ID3 tag : No
Command line compressor : C:\Program Files (x86)\Exact Audio Copy\Flac\flac.exe
Additional command line options : -V -8 -T "Genre=%genre%" -T "Artist=%artist%" -T "Title=%title%" -T "Album=%albumtitle%" -T "Date=%year%" -T "Tracknumber=%tracknr%" -T "Comment=%comment%" %source%

TOC of the extracted CD

Track | Start | Length | Start sector | End sector
---------------------------------------------------------
1 | 0:00.00 | 3:33.70 | 0 | 16044
2 | 3:33.70 | 3:12.63 | 16045 | 30507
3 | 6:46.58 | 2:55.47 | 30508 | 43679
4 | 9:42.30 | 3:41.21 | 43680 | 60275
5 | 13:23.51 | 3:17.24 | 60276 | 75074
6 | 16:41.00 | 3:12.54 | 75075 | 89528
7 | 19:53.54 | 2:54.42 | 89529 | 102620
8 | 22:48.21 | 3:12.16 | 102621 | 117036
9 | 26:00.37 | 2:56.29 | 117037 | 130265
10 | 28:56.66 | 2:44.30 | 130266 | 142595
11 | 31:41.21 | 3:01.24 | 142596 | 156194
12 | 34:42.45 | 3:35.08 | 156195 | 172327
13 | 38:17.53 | 3:22.36 | 172328 | 187513
14 | 41:40.14 | 3:36.21 | 187514 | 203734
15 | 45:16.35 | 3:21.73 | 203735 | 218882
16 | 48:38.33 | 3:36.50 | 218883 | 235132
17 | 52:15.08 | 3:22.12 | 235133 | 250294
18 | 55:37.20 | 2:54.18 | 250295 | 263362
19 | 58:31.38 | 3:10.67 | 263363 | 277679
20 | 61:42.30 | 3:08.24 | 277680 | 291803
21 | 64:50.54 | 3:03.59 | 291804 | 305587
22 | 67:54.38 | 2:49.69 | 305588 | 318331
23 | 70:44.32 | 3:05.34 | 318332 | 332240
24 | 73:49.66 | 3:12.13 | 332241 | 346653

Track 1

Filename C:\Users\gari\Documents\!Temp\01 - Скажите, почему.wav

Pre-gap length 0:00:02.00

Peak level 81.0 %
Extraction speed 2.1 X
Track quality 100.0 %
Test CRC 6E0462F3
Copy CRC 6E0462F3
Track not present in AccurateRip database
Copy OK

Track 2

Filename C:\Users\gari\Documents\!Temp\02 - Черные глаза.wav

Pre-gap length 0:00:02.00

Peak level 89.1 %
Extraction speed 2.1 X
Track quality 100.0 %
Test CRC 38C248A0
Copy CRC 38C248A0
Track not present in AccurateRip database
Copy OK

Track 3

Filename C:\Users\gari\Documents\!Temp\03 - Вино любви.wav

Pre-gap length 0:00:02.00

Peak level 89.1 %
Extraction speed 1.4 X
Track quality 99.9 %
Test CRC ADA44544
Copy CRC ADA44544
Track not present in AccurateRip database
Copy OK

Track 4

Filename C:\Users\gari\Documents\!Temp\04 - Пой цыган, плачь цыган.wav

Pre-gap length 0:00:02.00

Peak level 98.8 %
Extraction speed 2.1 X
Track quality 100.0 %
Test CRC 09E463D1
Copy CRC 09E463D1
Track not present in AccurateRip database
Copy OK

Track 5

Filename C:\Users\gari\Documents\!Temp\05 - Жизнь цыганская.wav

Pre-gap length 0:00:02.00

Peak level 98.8 %
Extraction speed 2.1 X
Track quality 100.0 %
Test CRC 03D318EA
Copy CRC 03D318EA
Track not present in AccurateRip database
Copy OK

Track 6

Filename C:\Users\gari\Documents\!Temp\06 - Прощая, мой табор.wav

Pre-gap length 0:00:02.00

Peak level 98.8 %
Extraction speed 2.1 X
Track quality 100.0 %
Test CRC C46F6C95
Copy CRC C46F6C95
Track not present in AccurateRip database
Copy OK

Track 7

Filename C:\Users\gari\Documents\!Temp\07 - Барселона.wav

Pre-gap length 0:00:02.00

Peak level 98.9 %
Extraction speed 2.0 X
Track quality 100.0 %
Test CRC 242BB9B1
Copy CRC 242BB9B1
Track not present in AccurateRip database
Copy OK

Track 8

Filename C:\Users\gari\Documents\!Temp\08 - Мое последнее танго.wav

Pre-gap length 0:00:02.00

Peak level 89.0 %
Extraction speed 1.2 X
Track quality 99.8 %
Test CRC C14BE32F
Copy CRC C14BE32F
Track not present in AccurateRip database
Copy OK

Track 9

Filename C:\Users\gari\Documents\!Temp\09 - Моя Марусечка.wav

Pre-gap length 0:00:02.00

Peak level 89.1 %
Extraction speed 2.1 X
Track quality 100.0 %
Test CRC 8B550340
Copy CRC 8B550340
Track not present in AccurateRip database
Copy OK

Track 10

Filename C:\Users\gari\Documents\!Temp\10 - Дуня (Блины).wav

Pre-gap length 0:00:02.00

Peak level 98.8 %
Extraction speed 2.1 X
Track quality 100.0 %
Test CRC 34A55D8B
Copy CRC 34A55D8B
Track not present in AccurateRip database
Copy OK

Track 11

Filename C:\Users\gari\Documents\!Temp\11 - У самовара.wav

Pre-gap length 0:00:02.00

Peak level 98.6 %
Extraction speed 2.1 X
Track quality 100.0 %
Test CRC F5577A12
Copy CRC F5577A12
Track not present in AccurateRip database
Copy OK

Track 12

Filename C:\Users\gari\Documents\!Temp\12 - Туманно на душе.wav

Pre-gap length 0:00:02.00

Peak level 98.8 %
Extraction speed 1.5 X
Track quality 99.9 %
Test CRC E1B6A6FA
Copy CRC E1B6A6FA
Track not present in AccurateRip database
Copy OK

Track 13

Filename C:\Users\gari\Documents\!Temp\13 - Мрачное воскресенье.wav

Pre-gap length 0:00:02.00

Peak level 98.8 %
Extraction speed 1.5 X
Track quality 99.9 %
Test CRC 0988E5A6
Copy CRC 0988E5A6
Track not present in AccurateRip database
Copy OK

Track 14

Filename C:\Users\gari\Documents\!Temp\14 - Ты едешь пьяная.wav

Pre-gap length 0:00:02.00

Peak level 98.8 %
Extraction speed 2.2 X
Track quality 100.0 %
Test CRC 9F6B6EB8
Copy CRC 9F6B6EB8
Track not present in AccurateRip database
Copy OK

Track 15

Filename C:\Users\gari\Documents\!Temp\15 - Веселись, душа.wav

Pre-gap length 0:00:02.00

Peak level 98.8 %
Extraction speed 2.1 X
Track quality 100.0 %
Test CRC 95E9E58C
Copy CRC 95E9E58C
Track not present in AccurateRip database
Copy OK

Track 16

Filename C:\Users\gari\Documents\!Temp\16 - Пой, цыгане.wav

Pre-gap length 0:00:02.00

Peak level 98.8 %
Extraction speed 2.2 X
Track quality 100.0 %
Test CRC 6A26B0F8
Copy CRC 6A26B0F8
Track not present in AccurateRip database
Copy OK

Track 17

Filename C:\Users\gari\Documents\!Temp\17 - И льется песня.wav

Pre-gap length 0:00:02.00

Peak level 98.8 %
Extraction speed 1.4 X
Track quality 99.9 %
Test CRC 6FC2C991
Copy CRC 6FC2C991
Track not present in AccurateRip database
Copy OK

Track 18

Filename C:\Users\gari\Documents\!Temp\18 - Синяя рапсодия.wav

Pre-gap length 0:00:02.00

Peak level 88.1 %
Extraction speed 2.1 X
Track quality 100.0 %
Test CRC 34714FEC
Copy CRC 34714FEC
Track not present in AccurateRip database
Copy OK

Track 19

Filename C:\Users\gari\Documents\!Temp\19 - Старинный вальс.wav

Pre-gap length 0:00:02.00

Peak level 98.8 %
Extraction speed 1.4 X
Track quality 99.9 %
Test CRC 38954B73
Copy CRC 38954B73
Track not present in AccurateRip database
Copy OK

Track 20

Filename C:\Users\gari\Documents\!Temp\20 - Две гитары.wav

Pre-gap length 0:00:02.00

Peak level 98.8 %
Extraction speed 2.1 X
Track quality 100.0 %
Test CRC 81136744
Copy CRC 81136744
Track not present in AccurateRip database
Copy OK

Track 21

Filename C:\Users\gari\Documents\!Temp\21 - Все лгут цыгане.wav

Pre-gap length 0:00:02.00

Peak level 98.8 %
Extraction speed 2.1 X
Track quality 100.0 %
Test CRC 35CF34F2
Copy CRC 35CF34F2
Track not present in AccurateRip database
Copy OK

Track 22

Filename C:\Users\gari\Documents\!Temp\22 - Хорош мальчик уродился.wav

Pre-gap length 0:00:02.00

Peak level 98.8 %
Extraction speed 2.1 X
Track quality 100.0 %
Test CRC A96230CA
Copy CRC A96230CA
Track not present in AccurateRip database
Copy OK

Track 23

Filename C:\Users\gari\Documents\!Temp\23 - Что мне горе.wav

Pre-gap length 0:00:02.00

Peak level 98.8 %
Extraction speed 2.1 X
Track quality 100.0 %
Test CRC 95F33DB7
Copy CRC 95F33DB7
Track not present in AccurateRip database
Copy OK

Track 24

Filename C:\Users\gari\Documents\!Temp\24 - Мы с тобой цыгане.wav

Pre-gap length 0:00:02.00

Peak level 98.8 %
Extraction speed 2.1 X
Track quality 100.0 %
Test CRC 50298DB4
Copy CRC 50298DB4
Track not present in AccurateRip database
Copy OK

None of the tracks are present in the AccurateRip database

No errors occurred

End of status report

==== Log checksum 100C967E162532ACA1C23F344BB850578C96EF14D7F92066BAB80ACCD66323E8 ====

Этот торрент недоступен для скачивания без регистрации, однако доступен по публичной magnet-ссылке (источники с публичных трекеров). Перед использованием ссылки прочтите, пожалуйста Пользовательское соглашение, а также как можно дольше оставайтесь на раздаче! Для того, чтобы скачать сам торрент-файл (который видит больше источников), а также для того, чтобы поблагодарить релизера, вам необходимо зарегистрироваться. Если регистрироваться лень - вы можете также попробовать скачать релиз по нашим партнерским ссылкам ниже. Кроме того, зарегистрированным пользователям не показывается всплывающая реклама при скачивании.

[underverse.su].t16608.torrent
Трекер: Зарегистрирован   [ 30.12.2011 16:16 ]  

Статус: проверено (by garry at 30.12.2011 16:17)
Поблагодарили: 1 человек
Тип торрента: публичный - доступные источники с открытых трекеров: 
Размер: 349 MB (занимает 0,08 DVDR, для записи нужно 1 болванка DVDR/RW)
 
 

Яндекс.Метрика powered by Sphinx


В Н И М А Н И Е
Сайт не распространяет и не хранит электронные версии произведений, а лишь бесплатно и без коммерческой выгоды (не требуя взамен платы,
SMS и т.д.) предоставляет доступ к создаваемому пользователями каталогу ссылок на торрент-файлы, которые содержат только списки хеш-сумм.
Убедительная просьба с жалобами обращаться напрямую к пользователю, разместившему торрент файл.

Вверх