Loading...
Error

(Vocal) Любовь Казарновская - Grand Collection (2008) [FLAC (Tracks+.CUE), lossless]

Статистика раздачи
Размер:  456 MB   |    Зарегистрирован:  9 лет 4 месяца   |    Скачан:  15 раз

Полного источника не было: 1 месяц 29 дней

Сидов:  0  |  0 KB/s  ]   Личеров:  0  |  0 KB/s  ]

* - сиды/пиры с внешних источников

   
 
Автор Сообщение

garry Пол:Муж

06-Янв-2012 16:04

Любовь Казарновская - Grand Collection

Жанр: Vocal
Год выпуска: 2008
Производитель диска: Россия, Квадро-диск
Аудиокодек: FLAC
Тип рипа: Tracks+.CUE
Битрейт аудио: lossless
Продолжительность: 01:15:05

Треклист:

01 - Утро туманное (А. Абаза \ И.С. Тургенев)
02 - Ария Валли (из оперы ''Валли'') (A. Catalani)
03 - Хабанера Кармен (из оперы ''Кармен'') (G. Bizet)
04 - Mattinata (R. Leoncavallo)
05 - Средь шумного бала (П. Чайковский \ А. Толстой)
06 - Дорожные жалобы (М. Бернард \ А. Пушкин)
07 - Ямщик, не гони лошадей (Я. Фельдман \ Н. Риттер)
08 - O, Sole Mio (E. Di Capua \ G. Cappuro)
09 - День ли царит (П. Чайковский \ А. Апухтин)
10 - Песенка герцога (из оперы ''Риголетто'') (G. Verdi)
11 - Ночь светла (Н. Шишкин \ М. Языков)
12 - Ночь (А. Рубинштейн \ А. Пушкин)
13 - Ноченька (Народная)
14 - Цыганка (G. Verdi)
15 - Цыганские песенки (опус 79 №7) (R. Schumann)
16 - Цыганские песенки (опус 79 № 8) (R. Schumann)
17 - Грузинская песня (М. Балакирев \ А. Пушкин)
18 - 3 цыгана (F. Liszt \ N. Lenau)
19 - Сила судьбы (Мелодия Леоноры)* (G. Verdi)
20 - Сила судьбы (Мелодия Леоноры)** (G. Verdi)
*Российский Государственный Симфонический Оркестр Кинематографии, Хор радио и телевидения.
** Российский Государственный Симфонический Оркестр Кинематографии. Дирижер - Сергей Скрипка.
Exact Audio Copy V1.0 beta 3 from 29. August 2011

EAC extraction logfile from 25. December 2011, 15:41

Любовь Казарновская / Grand Collection

Used drive : SONY CD-RW CRX230ED Adapter: 1 ID: 0

Read mode : Secure
Utilize accurate stream : Yes
Defeat audio cache : Yes
Make use of C2 pointers : No

Read offset correction : 6
Overread into Lead-In and Lead-Out : No
Fill up missing offset samples with silence : Yes
Delete leading and trailing silent blocks : No
Null samples used in CRC calculations : Yes
Used interface : Native Win32 interface for Win NT & 2000
Gap handling : Appended to previous track

Used output format : User Defined Encoder
Selected bitrate : 1024 kBit/s
Quality : High
Add ID3 tag : No
Command line compressor : C:\Program Files (x86)\Exact Audio Copy\Flac\flac.exe
Additional command line options : -V -8 -T "Genre=%genre%" -T "Artist=%artist%" -T "Title=%title%" -T "Album=%albumtitle%" -T "Date=%year%" -T "Tracknumber=%tracknr%" -T "Comment=%comment%" %source%

TOC of the extracted CD

Track | Start | Length | Start sector | End sector
---------------------------------------------------------
1 | 0:00.00 | 3:51.49 | 0 | 17373
2 | 3:51.49 | 3:48.73 | 17374 | 34546
3 | 7:40.47 | 5:53.60 | 34547 | 61081
4 | 13:34.32 | 2:26.68 | 61082 | 72099
5 | 16:01.25 | 2:31.40 | 72100 | 83464
6 | 18:32.65 | 4:59.06 | 83465 | 105895
7 | 23:31.71 | 4:06.30 | 105896 | 124375
8 | 27:38.26 | 3:15.70 | 124376 | 139070
9 | 30:54.21 | 3:39.47 | 139071 | 155542
10 | 34:33.68 | 2:04.06 | 155543 | 164848
11 | 36:37.74 | 3:55.71 | 164849 | 182544
12 | 40:33.70 | 4:08.54 | 182545 | 201198
13 | 44:42.49 | 3:00.14 | 201199 | 214712
14 | 47:42.63 | 2:21.45 | 214713 | 225332
15 | 50:04.33 | 1:32.04 | 225333 | 232236
16 | 51:36.37 | 1:45.67 | 232237 | 240178
17 | 53:22.29 | 5:01.04 | 240179 | 262757
18 | 58:23.33 | 7:33.72 | 262758 | 296804
19 | 65:57.30 | 2:49.24 | 296805 | 309503
20 | 68:46.54 | 6:29.50 | 309504 | 338728

Track 1

Filename C:\Users\gari\Documents\!Temp\01 - Утро туманное.wav

Pre-gap length 0:00:02.00

Peak level 64.6 %
Extraction speed 5.2 X
Track quality 100.0 %
Test CRC 611DC7CD
Copy CRC 611DC7CD
Track not present in AccurateRip database
Copy OK

Track 2

Filename C:\Users\gari\Documents\!Temp\02 - Ария Валли (из оперы ''Валли'').wav

Pre-gap length 0:00:02.00

Peak level 96.1 %
Extraction speed 5.7 X
Track quality 100.0 %
Test CRC 2F63A62C
Copy CRC 2F63A62C
Track not present in AccurateRip database
Copy OK

Track 3

Filename C:\Users\gari\Documents\!Temp\03 - Хабанера Кармен (из оперы ''Кармен'').wav

Pre-gap length 0:00:02.00

Peak level 98.1 %
Extraction speed 6.5 X
Track quality 100.0 %
Test CRC 9DB73F56
Copy CRC 9DB73F56
Track not present in AccurateRip database
Copy OK

Track 4

Filename C:\Users\gari\Documents\!Temp\04 - Mattinata.wav

Pre-gap length 0:00:02.00

Peak level 76.8 %
Extraction speed 6.1 X
Track quality 100.0 %
Test CRC 14C8C2CA
Copy CRC 14C8C2CA
Track not present in AccurateRip database
Copy OK

Track 5

Filename C:\Users\gari\Documents\!Temp\05 - Средь шумного бала.wav

Pre-gap length 0:00:02.00

Peak level 71.0 %
Extraction speed 6.4 X
Track quality 100.0 %
Test CRC 2CD144D4
Copy CRC 2CD144D4
Track not present in AccurateRip database
Copy OK

Track 6

Filename C:\Users\gari\Documents\!Temp\06 - Дорожные жалобы.wav

Pre-gap length 0:00:02.00

Peak level 75.9 %
Extraction speed 7.5 X
Track quality 100.0 %
Test CRC 19DCA24A
Copy CRC 19DCA24A
Track not present in AccurateRip database
Copy OK

Track 7

Filename C:\Users\gari\Documents\!Temp\07 - Ямщик, не гони лошадей.wav

Pre-gap length 0:00:02.00

Peak level 75.8 %
Extraction speed 7.6 X
Track quality 100.0 %
Test CRC C708C32A
Copy CRC C708C32A
Track not present in AccurateRip database
Copy OK

Track 8

Filename C:\Users\gari\Documents\!Temp\08 - O, Sole Mio.wav

Pre-gap length 0:00:02.00

Peak level 77.0 %
Extraction speed 7.8 X
Track quality 100.0 %
Test CRC 2B58839F
Copy CRC 2B58839F
Track not present in AccurateRip database
Copy OK

Track 9

Filename C:\Users\gari\Documents\!Temp\09 - День ли царит.wav

Pre-gap length 0:00:02.00

Peak level 56.2 %
Extraction speed 8.1 X
Track quality 100.0 %
Test CRC 402C48DE
Copy CRC 402C48DE
Track not present in AccurateRip database
Copy OK

Track 10

Filename C:\Users\gari\Documents\!Temp\10 - Песенка герцога (из оперы ''Риголетто'').wav

Pre-gap length 0:00:02.00

Peak level 87.9 %
Extraction speed 7.6 X
Track quality 100.0 %
Test CRC DED276EA
Copy CRC DED276EA
Track not present in AccurateRip database
Copy OK

Track 11

Filename C:\Users\gari\Documents\!Temp\11 - Ночь светла.wav

Pre-gap length 0:00:02.00

Peak level 72.5 %
Extraction speed 8.7 X
Track quality 100.0 %
Test CRC 2283256A
Copy CRC 2283256A
Track not present in AccurateRip database
Copy OK

Track 12

Filename C:\Users\gari\Documents\!Temp\12 - Ночь.wav

Pre-gap length 0:00:02.00

Peak level 77.7 %
Extraction speed 9.0 X
Track quality 100.0 %
Test CRC C11DB5C0
Copy CRC C11DB5C0
Track not present in AccurateRip database
Copy OK

Track 13

Filename C:\Users\gari\Documents\!Temp\13 - Ноченька.wav

Pre-gap length 0:00:02.00

Peak level 86.8 %
Extraction speed 8.7 X
Track quality 100.0 %
Test CRC 68515568
Copy CRC 68515568
Track not present in AccurateRip database
Copy OK

Track 14

Filename C:\Users\gari\Documents\!Temp\14 - Цыганка.wav

Pre-gap length 0:00:02.00

Peak level 89.4 %
Extraction speed 8.5 X
Track quality 100.0 %
Test CRC 485BCF00
Copy CRC 485BCF00
Track not present in AccurateRip database
Copy OK

Track 15

Filename C:\Users\gari\Documents\!Temp\15 - Цыганские песенки (опус 79 №7).wav

Pre-gap length 0:00:02.00

Peak level 87.7 %
Extraction speed 7.8 X
Track quality 100.0 %
Test CRC 79F4AFEF
Copy CRC 79F4AFEF
Track not present in AccurateRip database
Copy OK

Track 16

Filename C:\Users\gari\Documents\!Temp\16 - Цыганские песенки (опус 79 № 8).wav

Pre-gap length 0:00:02.00

Peak level 87.2 %
Extraction speed 5.4 X
Track quality 99.8 %
Test CRC EE98F831
Copy CRC EE98F831
Track not present in AccurateRip database
Copy OK

Track 17

Filename C:\Users\gari\Documents\!Temp\17 - Грузинская песня.wav

Pre-gap length 0:00:02.00

Peak level 86.9 %
Extraction speed 10.1 X
Track quality 100.0 %
Test CRC 732A443A
Copy CRC 732A443A
Track not present in AccurateRip database
Copy OK

Track 18

Filename C:\Users\gari\Documents\!Temp\18 - 3 цыгана.wav

Pre-gap length 0:00:02.00

Peak level 86.8 %
Extraction speed 10.8 X
Track quality 100.0 %
Test CRC 785B03DC
Copy CRC 785B03DC
Track not present in AccurateRip database
Copy OK

Track 19

Filename C:\Users\gari\Documents\!Temp\19 - Сила судьбы (Мелодия Леоноры).wav

Pre-gap length 0:00:02.00

Peak level 96.6 %
Extraction speed 7.3 X
Track quality 99.9 %
Test CRC 46F64A34
Copy CRC 46F64A34
Track not present in AccurateRip database
Copy OK

Track 20

Filename C:\Users\gari\Documents\!Temp\20 - Сила судьбы (Мелодия Леоноры).wav

Pre-gap length 0:00:02.00

Peak level 92.4 %
Extraction speed 11.3 X
Track quality 100.0 %
Test CRC 9D9669CA
Copy CRC 9D9669CA
Track not present in AccurateRip database
Copy OK

None of the tracks are present in the AccurateRip database

No errors occurred

End of status report

==== Log checksum DAB5D06244B3EC95B84BC81113189A89D3EA91575620E03A6DF58D7873783215 ====

Этот торрент недоступен для скачивания без регистрации, однако доступен по публичной magnet-ссылке (источники с публичных трекеров). Перед использованием ссылки прочтите, пожалуйста Пользовательское соглашение, а также как можно дольше оставайтесь на раздаче! Для того, чтобы скачать сам торрент-файл (который видит больше источников), а также для того, чтобы поблагодарить релизера, вам необходимо зарегистрироваться. Если регистрироваться лень - вы можете также попробовать скачать релиз по нашим партнерским ссылкам ниже. Кроме того, зарегистрированным пользователям не показывается всплывающая реклама при скачивании.

[underverse.su].t16674.torrent
Трекер: Зарегистрирован   [ 06.01.2012 16:04 ]  

Статус: проверено (by garry at 06.01.2012 16:05)
Поблагодарили: 2 человека
Тип торрента: публичный - доступные источники с открытых трекеров: 
Размер: 456 MB (занимает 0,1 DVDR, для записи нужно 1 болванка DVDR/RW)
 
 

Яндекс.Метрика powered by Sphinx


В Н И М А Н И Е
Сайт не распространяет и не хранит электронные версии произведений, а лишь бесплатно и без коммерческой выгоды (не требуя взамен платы,
SMS и т.д.) предоставляет доступ к создаваемому пользователями каталогу ссылок на торрент-файлы, которые содержат только списки хеш-сумм.
Убедительная просьба с жалобами обращаться напрямую к пользователю, разместившему торрент файл.

Вверх