Loading...
Error

Джиу-джитсу: Битва за Землю / Jiu Jitsu (Димитри Логотетис) [2020, Боевик, фантастика, боевые искусства, BDRip 1080p] Dub (iTunes) + Original + Sub (Rus/Eng)

Статистика раздачи
Размер:  11,22 GB   |    Зарегистрирован:  1 месяц 21 день   |    Скачан:  7 раз
Сидов:  1  |  0 KB/s  ]   Личеров:  0  |  0 KB/s  ]

* - сиды/пиры с внешних источников

   
 
Автор Сообщение

Konin Пол:Муж

10-Янв-2021 23:08

Джиу-джитсу: Битва за Землю / Jiu Jitsu

Год выхода: 2020
Страна: США
Студия: Acme Rocket Fuel, Green Olive Films
Жанр: Боевик, фантастика, боевые искусства
Продолжительность: 01:42:07
Перевод: Дублированный | iTunes
Режиссер:
Димитри Логотетис
В ролях:
Николас Кейдж, Мари Авгеропулос, Фрэнк Грилло, Тони Джа, Рик Юн, Жужу Чан, Ален Мусси, Эдди Стиплз, Маррезе Крамп, Том Уокер
О фильме:
Каждые шесть лет древний орден мастеров джиу-джитсу сражается за Землю с расой безжалостных пришельцев из космоса. Так было тысячи лет, пока ветеран Джейк Барнс не потерпел поражение, и безопасность человечества оказалась под угрозой. Побитого и потерявшего сознание Джейка находят Уайли, Кюн и Харриган. Вместе они должны помочь Джейку набраться сил и остановить пришельца Бракса.

Качество: BDRip 1080p
Формат: MKV
Видео: MPEG-4 AVC, 1920x804, 14.7 Mbit/s, 23.976 fps
Аудио #01: 48 kHz, AC3, 5.1, 384 Kbps | iTunes | RUS |
Аудио #02: 48 kHz, AC3, 5.1, 640 Kbps | Оригинал | ENG |
Субтитры: Русские (Full), английские
General
Unique ID : 17547368579114067287206192874183926303 (0xD338010FC2D5335F17C3C41F3EF221F)
Complete name : E:VideoFirstJiu.Jitsu.2020.BDRip.1080p.seleZen.mkv
Format : Matroska
Format version : Version 4
File size : 11.2 GiB
Duration : 1 h 42 min
Overall bit rate : 15.7 Mb/s
Movie name : Jiu Jitsu 2020 from seleZen
Encoded date : UTC 2021-01-10 23:00:12
Writing application : mkvmerge v40.0.0 ('Old Town Road + Pony') 64-bit
Writing library : libebml v1.3.9 + libmatroska v1.5.2
Video
ID : 1
Format : AVC
Format/Info : Advanced Video Codec
Format profile : High@L4.1
Format settings : CABAC / 5 Ref Frames
Format settings, CABAC : Yes
Format settings, Reference : 5 frames
Codec ID : V_MPEG4/ISO/AVC
Duration : 1 h 42 min
Bit rate : 14.7 Mb/s
Width : 1 920 pixels
Height : 804 pixels
Display aspect ratio : 2.40:1
Frame rate mode : Constant
Frame rate : 23.976 (24000/1001) FPS
Color space : YUV
Chroma subsampling : 4:2:0
Bit depth : 8 bits
Scan type : Progressive
Bits/(Pixel*Frame) : 0.397
Stream size : 10.5 GiB (93%)
Title : iFT
Writing library : x264 core 161 r3018+53 ~ Encoded by Mocunaman in Portugal
Encoding settings : cabac=1 / ref=5 / deblock=1:-3:-3 / analyse=0x3:0x113 / me=umh / subme=11 / psy=1 / fade_compensate=0.00 / psy_rd=1.00:0.00 / mixed_ref=1 / me_range=32 / chroma_me=1 / trellis=2 / 8x8dct=1 / cqm=0 / deadzone=21,11 / fast_pskip=0 / chroma_qp_offset=-2 / threads=25 / lookahead_threads=4 / sliced_threads=0 / nr=0 / decimate=0 / interlaced=0 / bluray_compat=0 / constrained_intra=0 / fgo=0 / bframes=8 / b_pyramid=2 / b_adapt=2 / b_bias=0 / direct=3 / weightb=1 / open_gop=0 / weightp=2 / keyint=250 / keyint_min=23 / scenecut=40 / intra_refresh=0 / rc_lookahead=60 / rc=crf / mbtree=0 / crf=19.0000 / qcomp=0.65 / qpmin=0:0:0 / qpmax=69:69:69 / qpstep=4 / vbv_maxrate=62500 / vbv_bufsize=78125 / crf_max=0.0 / nal_hrd=none / filler=0 / ip_ratio=1.30 / pb_ratio=1.20 / aq=3:0.85 / aq-sensitivity=10.00 / aq-factor=1.00:1.00:1.00 / aq2=0 / aq3=0 / zones=0,8088,crf=17/8160,27072,crf=17/46107,47715,crf=17.5/53739,56211,crf=17.5/56388,64166,crf=17.5/87208,120954,crf=17.5/128946,138306,crf=17.5
Language : English
Default : Yes
Forced : No
Color range : Limited
Color primaries : BT.709
Transfer characteristics : BT.709
Matrix coefficients : BT.709
Audio #1
ID : 2
Format : AC-3
Format/Info : Audio Coding 3
Commercial name : Dolby Digital
Codec ID : A_AC3
Duration : 1 h 42 min
Bit rate mode : Constant
Bit rate : 384 kb/s
Channel(s) : 6 channels
Channel layout : L R C LFE Ls Rs
Sampling rate : 48.0 kHz
Frame rate : 31.250 FPS (1536 SPF)
Compression mode : Lossy
Stream size : 280 MiB (2%)
Title : iTunes
Language : Russian
Service kind : Complete Main
Default : Yes
Forced : Yes
Audio #2
ID : 3
Format : AC-3
Format/Info : Audio Coding 3
Commercial name : Dolby Digital
Codec ID : A_AC3
Duration : 1 h 42 min
Bit rate mode : Constant
Bit rate : 640 kb/s
Channel(s) : 6 channels
Channel layout : L R C LFE Ls Rs
Sampling rate : 48.0 kHz
Frame rate : 31.250 FPS (1536 SPF)
Compression mode : Lossy
Stream size : 467 MiB (4%)
Title : Original
Language : English
Service kind : Complete Main
Default : No
Forced : No
Text #1
ID : 4
Format : UTF-8
Codec ID : S_TEXT/UTF8
Codec ID/Info : UTF-8 Plain Text
Duration : 1 h 36 min
Bit rate : 39 b/s
Count of elements : 609
Stream size : 27.7 KiB (0%)
Title : Full
Language : Russian
Default : No
Forced : No
Text #2
ID : 5
Format : UTF-8
Codec ID : S_TEXT/UTF8
Codec ID/Info : UTF-8 Plain Text
Duration : 1 h 30 min
Bit rate : 23 b/s
Count of elements : 595
Stream size : 15.7 KiB (0%)
Title : Full
Language : English
Default : No
Forced : No
Text #3
ID : 6
Format : UTF-8
Codec ID : S_TEXT/UTF8
Codec ID/Info : UTF-8 Plain Text
Duration : 1 h 36 min
Bit rate : 27 b/s
Count of elements : 839
Stream size : 19.1 KiB (0%)
Title : SDH
Language : English
Default : No
Forced : No
Menu
00:00:00.000 : en:Chapter 01
00:05:39.881 : en:Chapter 02
00:14:15.855 : en:Chapter 03
00:25:25.858 : en:Chapter 04
00:33:13.158 : en:Chapter 05
00:44:36.299 : en:Chapter 06
00:53:18.237 : en:Chapter 07
01:03:39.190 : en:Chapter 08
01:11:08.806 : en:Chapter 09
01:24:07.709 : en:Chapter 10
01:29:45.589 : en:Chapter 11
01:38:03.377 : en:Chapter 12
Релиз:

Этот торрент недоступен для скачивания без регистрации, однако доступен по публичной magnet-ссылке (источники с публичных трекеров). Перед использованием ссылки прочтите, пожалуйста Пользовательское соглашение, а также как можно дольше оставайтесь на раздаче! Для того, чтобы скачать сам торрент-файл (который видит больше источников), а также для того, чтобы поблагодарить релизера, вам необходимо зарегистрироваться. Если регистрироваться лень - вы можете также попробовать скачать релиз по нашим партнерским ссылкам ниже. Кроме того, зарегистрированным пользователям не показывается всплывающая реклама при скачивании.

[underver.se].t194839.torrent
Трекер: Зарегистрирован   [ 10.01.2021 23:08 ]  

Статус: проверено (by 90ytr90 at 11.01.2021 03:08)
Поблагодарили: 1 человек
Тип торрента: публичный - доступные источники с открытых трекеров: 
Размер: 11,22 GB (занимает 2,56 DVDR, для записи нужно 3 болванки DVDR/RW)
 
 
Похожие темы
Форум Тема Автор Торрент Отв. Посл. сооб.
T Зарубежное кино [DVDRip, Low-Res HDRip, и т.д.] Джиу-джитсу: Битва за Землю / Jiu Jitsu (Димитри Логотетис) [2020 г., боевик, фантастика, WEB-DLRip] DVO (@MUZOBOZ@) makkol
127 | 2

0 | 381

14

21.11.2020 21:36

Зарубежное кино [DVDRip, Low-Res HDRip, и т.д.] Джиу-джитсу: Битва за Землю / Jiu Jitsu (Димитри Логотетис / Dimitri Logothetis) [2020 г., боевик, фантастика, WEB-DLRip] VO (feofanio) + Original (Eng) + Sub (Rus, Eng) 90ytr90
30 | 0

0 | 302

7

22.11.2020 19:43

Зарубежное кино [DVDRip, Low-Res HDRip, и т.д.] Джиу-джитсу: Битва за Землю / Jiu Jitsu (Димитри Логотетис / Dimitri Logothetis) [2020 г., боевик, фантастика, WEB-DLRip] Dub (iTunes) 90ytr90
313 | 1

0 | 355

25

23.11.2020 23:05

Зарубежное кино [DVDRip, Low-Res HDRip, и т.д.] Джиу-джитсу: Битва за Землю / Jiu Jitsu (Димитри Логотетис / Dimitri Logothetis) [2020 г., боевик, фантастика, HDRip-AVC] Dub (iTunes) + Sub (Rus, Eng) 90ytr90
23 | 0

0 | 293

16

11.01.2021 05:43

T Зарубежное кино [HDDVDRip / BDRip / WEB-DL / HDTV 1080/720р] Джиу-джитсу: Битва за Землю / Jiu Jitsu (Димитри Логотетис) [2020 г., боевик, фантастика, WEB-DL 1080p] DVO (@MUZOBOZ@) makkol
18 | 0

0 | 416

19

21.11.2020 21:41

Зарубежное кино [HDDVDRip / BDRip / WEB-DL / HDTV 1080/720р] Джиу-джитсу: Битва за Землю / Jiu Jitsu (Димитри Логотетис / Dimitri Logothetis) [2020 г., боевик, фантастика, BDRip 720p] Dub (iTunes) + Original (Eng) + Sub (Rus, Eng) 90ytr90
43 | 1

0 | 306

6

10.01.2021 23:01


Яндекс.Метрика powered by Sphinx


В Н И М А Н И Е
Сайт не распространяет и не хранит электронные версии произведений, а лишь бесплатно и без коммерческой выгоды (не требуя взамен платы,
SMS и т.д.) предоставляет доступ к создаваемому пользователями каталогу ссылок на торрент-файлы, которые содержат только списки хеш-сумм.
Убедительная просьба с жалобами обращаться напрямую к пользователю, разместившему торрент файл.

Вверх