Loading...
Error

Наследие / Legacies / Сезон: 1 / Серии: 1-16 из 16 (Джеффри Уинг Шотц, Майкл А. Алловиц, Крис Грисмер) [2018-2019, фэнтези, драма, детектив, приключения, ужасы, WEB-DL 1080p] MVO (TVShows) + Original + Sub (Eng)

Статистика раздачи
Размер:  39.58 GB   |    Зарегистрирован:  1 год 8 месяцев   |    Скачан:  7 раз

Полного источника не было: 8 месяцев

Сидов:  0  |  0 KB/s  ]   Личеров:  0  |  0 KB/s  ]

* - сиды/пиры с внешних источников

   
 
Автор Сообщение

Konin Пол:Муж

22-Янв-2021 10:05

Наследие / Legacies

Год выпуска: 2018-2019
Страна: США
Производство: Warner Bros. Television, CBS Television Studios, Alloy Entertainment
Жанр: фэнтези, драма, детектив, приключения, ужасы
Продолжительность: ~00:43:00
Перевод: Профессиональный (многоголосый, закадровый) | TVShows
Режиссеры:
Джеффри Уинг Шотц, Майкл А. Алловиц, Крис Грисмер
В ролях:
Даниэль Роуз Расселл, Мэттью Дэвис, Кайли Брайант, Дженни Бойд, Ария Шахгасеми, Пейтон «Алекс» Смит, Куинси Фаус, Крис Ли
Описание:
Рассказ о следующем поколении сверхъестественных существ в Школе Сальваторе для молодых и одаренных. Дочь Клауса Майклсона, 17-летняя Хоуп Майклсон; Близнецы Аларика Зальцмана, Лиззи и Джози Зальцман, и другие молодые люди достигли совершеннолетия необычным способом, чтобы стать их лучшими личностями, несмотря на их худшие импульсы. Станут ли эти молодые ведьмы, вампиры и оборотни героями, которыми они хотят быть — или злодеями, которыми они родились..?

Качество: WEB-DL 1080p
Формат: МКV
Видео: 1920x1080 (16:9), 23.976 fps, MPEG-4 AVC ~7 920 kbps avg
Аудио №1: 48.0 kHz, AC3 Dolby Digital, 3/2 (L,C,R,l,r) + LFE ch, ~384 kbps | RUS / MVO
Аудио №2: 48.0 kHz, Enhanced Audio Coding 3, 3/2 (L,C,R,l,r) + LFE ch, ~640 kbps | ENG
Субтитры: английские
General
Unique ID : 192912361513140583584625619490603515121 (0x912191C21AF2BFABA9F25805BC7BBCF1)
Complete name : Legacies.S01E01.1080p.TVShows.mkv
Format : Matroska
Format version : Version 4 / Version 2
File size : 2.65 GiB
Duration : 42 min 25 s
Overall bit rate : 8 947 kb/s
Encoded date : UTC 2018-11-03 14:54:33
Writing application : mkvmerge v28.2.0 ('The Awakening') 64-bit
Writing library : libebml v1.3.6 + libmatroska v1.4.9
Video
ID : 1
Format : AVC
Format/Info : Advanced Video Codec
Format profile : [email protected]
Format settings, CABAC : Yes
Format settings, ReFrames : 4 frames
Codec ID : V_MPEG4/ISO/AVC
Duration : 42 min 25 s
Bit rate : 7 921 kb/s
Width : 1 920 pixels
Height : 1 080 pixels
Display aspect ratio : 16:9
Frame rate mode : Constant
Frame rate : 23.976 (24000/1001) FPS
Color space : YUV
Chroma subsampling : 4:2:0
Bit depth : 8 bits
Scan type : Progressive
Bits/(Pixel*Frame) : 0.159
Stream size : 2.35 GiB (89%)
Default : Yes
Forced : No
Color range : Limited
Color primaries : BT.709
Transfer characteristics : BT.709
Matrix coefficients : BT.709
Audio #1
ID : 2
Format : AC-3
Format/Info : Audio Coding 3
Mode extension : CM (complete main)
Format settings, Endianness : Big
Codec ID : A_AC3
Duration : 42 min 25 s
Bit rate mode : Constant
Bit rate : 384 kb/s
Channel(s) : 6 channels
Channel positions : Front: L C R, Side: L R, LFE
Sampling rate : 48.0 kHz
Frame rate : 31.250 FPS (1536 spf)
Bit depth : 16 bits
Compression mode : Lossy
Stream size : 117 MiB (4%)
Title : TVShows
Language : Russian
Default : Yes
Forced : Yes
Audio #2
ID : 3
Format : E-AC-3
Format/Info : Enhanced Audio Coding 3
Format settings, Endianness : Big
Codec ID : A_EAC3
Duration : 42 min 25 s
Bit rate mode : Constant
Bit rate : 640 kb/s
Channel(s) : 6 channels
Channel positions : Front: L C R, Side: L R, LFE
Sampling rate : 48.0 kHz
Frame rate : 187.500 FPS (256 spf)
Compression mode : Lossy
Stream size : 194 MiB (7%)
Title : Original
Language : English
Default : No
Forced : No
Text
ID : 4
Format : UTF-8
Codec ID : S_TEXT/UTF8
Codec ID/Info : UTF-8 Plain Text
Duration : 41 min 44 s
Bit rate : 73 b/s
Count of elements : 756
Stream size : 22.5 KiB (0%)
Title : English
Language : English
Default : No
Forced : No

Этот торрент недоступен для скачивания без регистрации, однако доступен по публичной magnet-ссылке (источники с публичных трекеров). Перед использованием ссылки прочтите, пожалуйста Пользовательское соглашение, а также как можно дольше оставайтесь на раздаче! Для того, чтобы скачать сам торрент-файл (который видит больше источников), а также для того, чтобы поблагодарить релизера, вам необходимо зарегистрироваться. Если регистрироваться лень - вы можете также попробовать скачать релиз по нашим партнерским ссылкам ниже. Кроме того, зарегистрированным пользователям не показывается всплывающая реклама при скачивании.

[underver.se].t196047.torrent
Трекер: Зарегистрирован   [ 22.01.2021 10:05 ]  
Статус: проверено (by makkol at 24.01.2021 20:23)
Поблагодарили: 1 человек
Тип торрента: публичный - доступные источники с открытых трекеров: 
Размер: 39.58 GB (занимает 9.04 DVDR, для записи нужно 10 болванок DVDR/RW)
 
 

Яндекс.Метрика powered by Sphinx


В Н И М А Н И Е
Сайт не распространяет и не хранит электронные версии произведений, а лишь бесплатно и без коммерческой выгоды (не требуя взамен платы,
SMS и т.д.) предоставляет доступ к создаваемому пользователями каталогу ссылок на торрент-файлы, которые содержат только списки хеш-сумм.
Убедительная просьба с жалобами обращаться напрямую к пользователю, разместившему торрент файл.

Вверх