Loading...
Error

Наследие / Legacies / Сезон: 2 / Серии: 1-16 из 16 (Джеффри Уинг Шотц, Майкл А. Алловиц, Крис Грисмер) [2019-2020, фэнтези, драма, детектив, приключения, ужасы, WEB-DL 1080p] MVO (TVShows) + Original + Sub (Eng)

Статистика раздачи
Размер:  46.94 GB   |    Зарегистрирован:  1 год 8 месяцев   |    Скачан:  4 раза

Полного источника не было: 4 дня

Сидов:  0  |  0 KB/s  ]   Личеров:  0  |  0 KB/s  ]

* - сиды/пиры с внешних источников

   
 
Автор Сообщение

Konin Пол:Муж

22-Янв-2021 10:08

Наследие / Legacies

Год выпуска: 2019-2020
Страна: США
Производство: Warner Bros. Television, CBS Television Studios, Alloy Entertainment
Жанр: фэнтези, драма, детектив, приключения, ужасы
Продолжительность: ~00:43:00
Перевод: Профессиональный (многоголосый, закадровый) | TVShows
Режиссеры:
Джеффри Уинг Шотц, Майкл А. Алловиц, Крис Грисмер
В ролях:
Даниэль Роуз Расселл, Мэттью Дэвис, Кайли Брайант, Дженни Бойд, Ария Шахгасеми, Пейтон «Алекс» Смит, Куинси Фаус, Крис Ли
Описание:
Рассказ о следующем поколении сверхъестественных существ в Школе Сальваторе для молодых и одаренных. Дочь Клауса Майклсона, 17-летняя Хоуп Майклсон; Близнецы Аларика Зальцмана, Лиззи и Джози Зальцман, и другие молодые люди достигли совершеннолетия необычным способом, чтобы стать их лучшими личностями, несмотря на их худшие импульсы. Станут ли эти молодые ведьмы, вампиры и оборотни героями, которыми они хотят быть — или злодеями, которыми они родились..?

Качество: WEB-DL 1080p
Формат: МКV
Видео: 1920x1080 (16:9), 23.976 fps, MPEG-4 AVC ~8 392 kbps avg
Аудио №1: 48.0 kHz, AC3 Dolby Digital, 3/2 (L,C,R,l,r) + LFE ch, ~448 kbps | RUS / MVO
Аудио №2: 48.0 kHz, Enhanced Audio Coding 3, 3/2 (L,C,R,l,r) + LFE ch, ~640 kbps | ENG
Субтитры: английские
General
Unique ID : 118544506607759515068012059535536070148 (0x592ED76CAA4AF3D5C8F0A171AD389E04)
Complete name : Legacies.S02E01.1080p.TVShows.mkv
Format : Matroska
Format version : Version 4
File size : 2.81 GiB
Duration : 42 min 26 s
Overall bit rate : 9 482 kb/s
Encoded date : UTC 2019-10-14 10:27:00
Writing application : mkvmerge v33.1.0 ('Primrose') 64-bit
Writing library : libebml v1.3.7 + libmatroska v1.5.0
Video
ID : 1
Format : AVC
Format/Info : Advanced Video Codec
Format profile : [email protected]
Format settings : CABAC / 4 Ref Frames
Format settings, CABAC : Yes
Format settings, Reference frames : 4 frames
Codec ID : V_MPEG4/ISO/AVC
Duration : 42 min 26 s
Bit rate mode : Constant
Bit rate : 8 392 kb/s
Nominal bit rate : 10 000 kb/s
Width : 1 920 pixels
Height : 1 080 pixels
Display aspect ratio : 16:9
Frame rate mode : Constant
Frame rate : 23.976 (24000/1001) FPS
Color space : YUV
Chroma subsampling : 4:2:0
Bit depth : 8 bits
Scan type : Progressive
Bits/(Pixel*Frame) : 0.169
Stream size : 2.49 GiB (88%)
Default : Yes
Forced : No
Color range : Limited
Color primaries : BT.709
Transfer characteristics : BT.709
Matrix coefficients : BT.709
Audio #1
ID : 2
Format : AC-3
Format/Info : Audio Coding 3
Commercial name : Dolby Digital
Codec ID : A_AC3
Duration : 42 min 26 s
Bit rate mode : Constant
Bit rate : 448 kb/s
Channel(s) : 6 channels
Channel layout : L R C LFE Ls Rs
Sampling rate : 48.0 kHz
Frame rate : 31.250 FPS (1536 SPF)
Compression mode : Lossy
Stream size : 136 MiB (5%)
Title : TVShows
Language : Russian
Service kind : Complete Main
Default : Yes
Forced : Yes
Audio #2
ID : 3
Format : E-AC-3
Format/Info : Enhanced AC-3
Commercial name : Dolby Digital Plus
Codec ID : A_EAC3
Duration : 42 min 26 s
Bit rate mode : Constant
Bit rate : 640 kb/s
Channel(s) : 6 channels
Channel layout : L R C LFE Ls Rs
Sampling rate : 48.0 kHz
Frame rate : 31.250 FPS (1536 SPF)
Compression mode : Lossy
Stream size : 194 MiB (7%)
Title : Original
Language : English
Service kind : Complete Main
Default : No
Forced : No
Text
ID : 4
Format : UTF-8
Codec ID : S_TEXT/UTF8
Codec ID/Info : UTF-8 Plain Text
Duration : 41 min 42 s
Bit rate : 78 b/s
Count of elements : 778
Stream size : 24.0 KiB (0%)
Title : English
Language : English
Default : No
Forced : No

Этот торрент недоступен для скачивания без регистрации, однако доступен по публичной magnet-ссылке (источники с публичных трекеров). Перед использованием ссылки прочтите, пожалуйста Пользовательское соглашение, а также как можно дольше оставайтесь на раздаче! Для того, чтобы скачать сам торрент-файл (который видит больше источников), а также для того, чтобы поблагодарить релизера, вам необходимо зарегистрироваться. Если регистрироваться лень - вы можете также попробовать скачать релиз по нашим партнерским ссылкам ниже. Кроме того, зарегистрированным пользователям не показывается всплывающая реклама при скачивании.

[underver.se].t196049.torrent
Трекер: Зарегистрирован   [ 22.01.2021 10:08 ]  
Статус: проверено (by makkol at 24.01.2021 20:24)
Поблагодарили: пока никто не поблагодарил...
Тип торрента: публичный - доступные источники с открытых трекеров: 
Размер: 46.94 GB (занимает 10.72 DVDR, для записи нужно 11 болванок DVDR/RW)
 
 

Яндекс.Метрика powered by Sphinx


В Н И М А Н И Е
Сайт не распространяет и не хранит электронные версии произведений, а лишь бесплатно и без коммерческой выгоды (не требуя взамен платы,
SMS и т.д.) предоставляет доступ к создаваемому пользователями каталогу ссылок на торрент-файлы, которые содержат только списки хеш-сумм.
Убедительная просьба с жалобами обращаться напрямую к пользователю, разместившему торрент файл.

Вверх