Loading...
Error

Бумажный дом / Money Heist / La Casa de Papel / Сезон: 1 / Серии: 1-13 из 13 (Хесус Кольменар, Алекс Родриго, Алехандро Бассано) [2017, боевик, триллер, криминал, детектив, WEB-DL 1080p] MVO (TVShows) + Original + Sub (Eng)

Статистика раздачи
Размер:  15.65 GB   |    Зарегистрирован:  1 год 8 месяцев   |    Скачан:  15 раз

Полного источника не было: 28 дней

Сидов:  0  |  0 KB/s  ]   Личеров:  0  |  0 KB/s  ]

* - сиды/пиры с внешних источников

   
 
Автор Сообщение

Konin Пол:Муж

22-Янв-2021 21:21

Бумажный дом / Money Heist / La Casa de Papel

Год выпуска: 2017
Страна: Испания
Производство: Vancouver Media, NetFlix
Жанр: боевик, триллер, криминал, детектив
Продолжительность: ~00:48:00
Перевод: Профессиональный (многоголосый, закадровый) | TVShows
Режиссеры:
Хесус Кольменар, Алекс Родриго, Алехандро Бассано
В ролях:
Урсула Корберо, Ициар Итуньо, Альваро Морте, Педро Алонсо, Альба Флорес, Мигель Эрран, Хайме Лорэнте, Эстер Асебо, Энрике Арсе
Описание:
Действие разворачивается вокруг группы авантюристов во главе с «Профессором», планирующих ограбление Испанского королевского монетного двора...

Качество: WEB-DL 1080p
Формат: МКV
Видео: 1920x1080 (16:9), 25.000 fps, MPEG-4 AVC ~4 020 kbps avg
Аудио №1: 48.0 kHz, AC3 Dolby Digital, 2/0 (L,R) ch, ~192 kbps | RUS / MVO
Аудио №2: 48.0 kHz, Enhanced Audio Coding 3, 2/0 (L,R) ch, ~128 kbps | SPA
Субтитры: английские (full)
General
Уникальный идентификатор : 126492994766747719824621060597025667744 (0x5F29AA25B1694D8C00804C9915F4FAA0)
Полное имя : La.Casa.De.Papel.S01E01.1080p.TVShows.mkv
Формат : Matroska
Версия формата : Version 4
Размер файла : 1,43 Гбайт
Продолжительность : 47 м. 28 с.
Режим общего битрейта : Переменный
Общий поток : 4318 Кбит/сек
Дата кодирования : UTC 2019-09-27 10:53:00
Программа кодирования : mkvmerge v33.1.0 ('Primrose') 64-bit
Библиотека кодирования : libebml v1.3.7 + libmatroska v1.5.0
Видео
Идентификатор : 1
Формат : AVC
Формат/Информация : Advanced Video Codec
Профиль формата : [email protected]
Настройки формата : CABAC / 3 Ref Frames
Параметр CABAC формата : Да
Параметр RefFrames формата : 3 кадра
Идентификатор кодека : V_MPEG4/ISO/AVC
Продолжительность : 47 м. 28 с.
Вид битрейта : Переменный
Битрейт : 4020 Кбит/сек
Максимальный битрейт : 6030 Кбит/сек
Ширина : 1920 пикселей
Высота : 1080 пикселей
Соотношение сторон : 16:9
Режим частоты кадров : Постоянный
Частота кадров : 25,000 кадров/сек
Цветовое пространство : YUV
Субдискретизация насыщенности : 4:2:0
Битовая глубина : 8 бит
Тип развёртки : Прогрессивная
Бит/(Пиксели*Кадры) : 0.078
Размер потока : 1,33 Гбайт (93%)
Библиотека кодирования : x264 core 148
Настройки программы : cabac=1 / ref=3 / deblock=1:0:0 / analyse=0x1:0x111 / me=umh / subme=10 / psy=1 / psy_rd=1.00:0.00 / mixed_ref=1 / me_range=24 / chroma_me=1 / trellis=2 / 8x8dct=0 / cqm=0 / deadzone=21,11 / fast_pskip=1 / chroma_qp_offset=-2 / threads=6 / lookahead_threads=1 / sliced_threads=0 / nr=0 / decimate=1 / interlaced=0 / bluray_compat=0 / stitchable=1 / constrained_intra=0 / bframes=2 / b_pyramid=0 / b_adapt=2 / b_bias=0 / direct=3 / weightb=1 / open_gop=0 / weightp=2 / keyint=50 / keyint_min=26 / scenecut=0 / intra_refresh=0 / rc_lookahead=50 / rc=2pass / mbtree=1 / bitrate=4020 / ratetol=1.0 / qcomp=0.50 / qpmin=6 / qpmax=51 / qpstep=4 / cplxblur=20.0 / qblur=0.5 / vbv_maxrate=6030 / vbv_bufsize=8040 / nal_hrd=vbr / filler=0 / ip_ratio=1.40 / aq=1:1.00
Default : Да
Forced : Нет
Аудио #1
Идентификатор : 2
Формат : AC-3
Формат/Информация : Audio Coding 3
Коммерческое название : Dolby Digital
Идентификатор кодека : A_AC3
Продолжительность : 47 м. 28 с.
Вид битрейта : Постоянный
Битрейт : 192 Кбит/сек
Каналы : 2 канала
ChannelLayout : L R
Частота : 48,0 КГц
Частота кадров : 31,250 кадров/сек (1536 SPF)
Битовая глубина : 16 бит
Метод сжатия : С потерями
Размер потока : 65,2 Мбайт (4%)
Заголовок : TVShows
Язык : Russian
Default : Да
Forced : Да
Аудио #2
Идентификатор : 3
Формат : E-AC-3
Формат/Информация : Enhanced AC-3
Коммерческое название : Dolby Digital Plus
Идентификатор кодека : A_EAC3
Продолжительность : 47 м. 28 с.
Вид битрейта : Постоянный
Битрейт : 128 Кбит/сек
Каналы : 2 канала
ChannelLayout : L R
Частота : 48,0 КГц
Частота кадров : 31,250 кадров/сек (1536 SPF)
Метод сжатия : С потерями
Размер потока : 43,5 Мбайт (3%)
Заголовок : Original
Язык : Spanish
Default : Нет
Forced : Нет
Текст
Идентификатор : 4
Формат : UTF-8
Идентификатор кодека : S_TEXT/UTF8
Идентификатор кодека/Информация : UTF-8 Plain Text
Продолжительность : 46 м. 31 с.
Битрейт : 58 бит/сек
ElementCount : 597
Размер потока : 20,0 Кбайт (0%)
Заголовок : English
Язык : English
Default : Нет
Forced : Нет

Этот торрент недоступен для скачивания без регистрации, однако доступен по публичной magnet-ссылке (источники с публичных трекеров). Перед использованием ссылки прочтите, пожалуйста Пользовательское соглашение, а также как можно дольше оставайтесь на раздаче! Для того, чтобы скачать сам торрент-файл (который видит больше источников), а также для того, чтобы поблагодарить релизера, вам необходимо зарегистрироваться. Если регистрироваться лень - вы можете также попробовать скачать релиз по нашим партнерским ссылкам ниже. Кроме того, зарегистрированным пользователям не показывается всплывающая реклама при скачивании.

[underver.se].t196217.torrent
Трекер: Зарегистрирован   [ 22.01.2021 21:21 ]  
Статус: проверено (by makkol at 24.01.2021 20:40)
Поблагодарили: пока никто не поблагодарил...
Тип торрента: публичный - доступные источники с открытых трекеров: 
Размер: 15.65 GB (занимает 3.57 DVDR, для записи нужно 4 болванки DVDR/RW)
 
 

Яндекс.Метрика powered by Sphinx


В Н И М А Н И Е
Сайт не распространяет и не хранит электронные версии произведений, а лишь бесплатно и без коммерческой выгоды (не требуя взамен платы,
SMS и т.д.) предоставляет доступ к создаваемому пользователями каталогу ссылок на торрент-файлы, которые содержат только списки хеш-сумм.
Убедительная просьба с жалобами обращаться напрямую к пользователю, разместившему торрент файл.

Вверх