Loading...
Error

Бумажный дом / Money Heist / La Casa de Papel / Сезон: 2 / Серии: 1-9 из 9 (Хесус Кольменар, Алекс Родриго, Алехандро Бассано) [2017, боевик, триллер, криминал, детектив, WEB-DL 720p] MVO (TVShows) + Original + Sub (Eng)

Статистика раздачи
Размер:  7.67 GB   |    Зарегистрирован:  1 год 8 месяцев   |    Скачан:  19 раз

Полного источника не было: 12 дней

Сидов:  0  |  0 KB/s  ]   Личеров:  0  |  0 KB/s  ]

* - сиды/пиры с внешних источников

   
 
Автор Сообщение

Konin Пол:Муж

22-Янв-2021 21:21

Бумажный дом / Money Heist / La Casa de Papel

Год выпуска: 2017
Страна: Испания
Производство: Vancouver Media, NetFlix
Жанр: боевик, триллер, криминал, детектив
Продолжительность: ~00:48:00
Перевод: Профессиональный (многоголосый, закадровый) | TVShows
Режиссеры:
Хесус Кольменар, Алекс Родриго, Алехандро Бассано
В ролях:
Урсула Корберо, Ициар Итуньо, Альваро Морте, Педро Алонсо, Альба Флорес, Мигель Эрран, Хайме Лорэнте, Эстер Асебо, Энрике Арсе
Описание:
Действие разворачивается вокруг группы авантюристов во главе с «Профессором», планирующих ограбление Испанского королевского монетного двора...

Качество: WEB-DL 720p
Формат: МКV
Видео: 1280x720 (16:9), 25.000 fps, MPEG-4 AVC ~1800-2562 kbps avg
Аудио №1: 48.0 kHz, AC3 Dolby Digital, 2/0 (L,R) ch, ~192 kbps | RUS / MVO
Аудио №2: 48.0 kHz, Enhanced Audio Coding 3, 2/0 (L,R) ch, ~128 kbps | SPA
Субтитры: английские (full)
General
Уникальный идентификатор : 30796795112000446207978882819876435659 (0x172B3F3AB8269E1D3010D2CD7813B6CB)
Полное имя : La.Casa.De.Papel.S02E06.720p.TVShows.mkv
Формат : Matroska
Версия формата : Version 4
Размер файла : 936 Мбайт
Продолжительность : 45 м. 22 с.
Общий поток : 2885 Кбит/сек
Дата кодирования : UTC 2019-10-25 12:01:55
Программа кодирования : mkvmerge v33.1.0 ('Primrose') 64-bit
Библиотека кодирования : libebml v1.3.7 + libmatroska v1.5.0
Видео
Идентификатор : 1
Формат : AVC
Формат/Информация : Advanced Video Codec
Профиль формата : [email protected]
Настройки формата : CABAC / 2 Ref Frames
Параметр CABAC формата : Да
Параметр RefFrames формата : 2 кадра
Идентификатор кодека : V_MPEG4/ISO/AVC
Продолжительность : 45 м. 22 с.
Битрейт : 2562 Кбит/сек
Ширина : 1280 пикселей
Высота : 720 пикселей
Соотношение сторон : 16:9
Режим частоты кадров : Постоянный
Частота кадров : 25,000 кадров/сек
Цветовое пространство : YUV
Субдискретизация насыщенности : 4:2:0
Битовая глубина : 8 бит
Тип развёртки : Прогрессивная
Бит/(Пиксели*Кадры) : 0.111
Размер потока : 831 Мбайт (89%)
Default : Да
Forced : Нет
Аудио #1
Идентификатор : 2
Формат : AC-3
Формат/Информация : Audio Coding 3
Коммерческое название : Dolby Digital
Идентификатор кодека : A_AC3
Продолжительность : 45 м. 22 с.
Вид битрейта : Постоянный
Битрейт : 192 Кбит/сек
Каналы : 2 канала
ChannelLayout : L R
Частота : 48,0 КГц
Частота кадров : 31,250 кадров/сек (1536 SPF)
Битовая глубина : 16 бит
Метод сжатия : С потерями
Размер потока : 62,3 Мбайт (7%)
Заголовок : TVShows
Язык : Russian
Default : Да
Forced : Да
Аудио #2
Идентификатор : 3
Формат : E-AC-3
Формат/Информация : Enhanced AC-3
Коммерческое название : Dolby Digital Plus
Идентификатор кодека : A_EAC3
Продолжительность : 45 м. 22 с.
Вид битрейта : Постоянный
Битрейт : 128 Кбит/сек
Каналы : 2 канала
ChannelLayout : L R
Частота : 48,0 КГц
Частота кадров : 31,250 кадров/сек (1536 SPF)
Метод сжатия : С потерями
Размер потока : 41,5 Мбайт (4%)
Заголовок : Original
Язык : Spanish
Default : Нет
Forced : Нет
Текст
Идентификатор : 4
Формат : UTF-8
Идентификатор кодека : S_TEXT/UTF8
Идентификатор кодека/Информация : UTF-8 Plain Text
Продолжительность : 44 м. 56 с.
Битрейт : 45 бит/сек
ElementCount : 555
Размер потока : 15,1 Кбайт (0%)
Заголовок : English
Язык : English
Default : Нет
Forced : Нет

Этот торрент недоступен для скачивания без регистрации, однако доступен по публичной magnet-ссылке (источники с публичных трекеров). Перед использованием ссылки прочтите, пожалуйста Пользовательское соглашение, а также как можно дольше оставайтесь на раздаче! Для того, чтобы скачать сам торрент-файл (который видит больше источников), а также для того, чтобы поблагодарить релизера, вам необходимо зарегистрироваться. Если регистрироваться лень - вы можете также попробовать скачать релиз по нашим партнерским ссылкам ниже. Кроме того, зарегистрированным пользователям не показывается всплывающая реклама при скачивании.

[underver.se].t196218.torrent
Трекер: Зарегистрирован   [ 22.01.2021 21:21 ]  
Статус: проверено (by makkol at 24.01.2021 20:41)
Поблагодарили: пока никто не поблагодарил...
Тип торрента: публичный - доступные источники с открытых трекеров: 
Размер: 7.67 GB (занимает 1.75 DVDR, для записи нужно 2 болванки DVDR/RW)
 
 

Яндекс.Метрика powered by Sphinx


В Н И М А Н И Е
Сайт не распространяет и не хранит электронные версии произведений, а лишь бесплатно и без коммерческой выгоды (не требуя взамен платы,
SMS и т.д.) предоставляет доступ к создаваемому пользователями каталогу ссылок на торрент-файлы, которые содержат только списки хеш-сумм.
Убедительная просьба с жалобами обращаться напрямую к пользователю, разместившему торрент файл.

Вверх