Loading...
Error

Бумажный дом / Money Heist / La Casa de Papel / Сезон: 2 / Серии: 1-9 из 9 (Хесус Кольменар, Алекс Родриго, Алехандро Бассано) [2017, боевик, триллер, криминал, детектив, WEB-DL 1080p] MVO (TVShows) + Original + Sub (Eng)

Статистика раздачи
Размер:  11.5 GB   |    Зарегистрирован:  1 год 8 месяцев   |    Скачан:  11 раз

Полного источника не было: 11 часов

Сидов:  0  |  0 KB/s  ]   Личеров:  0  |  0 KB/s  ]

* - сиды/пиры с внешних источников

   
 
Автор Сообщение

Konin Пол:Муж

22-Янв-2021 21:22

Бумажный дом / Money Heist / La Casa de Papel

Год выпуска: 2017
Страна: Испания
Производство: Vancouver Media, NetFlix
Жанр: боевик, триллер, криминал, детектив
Продолжительность: ~00:48:00
Перевод: Профессиональный (многоголосый, закадровый) | TVShows
Режиссеры:
Хесус Кольменар, Алекс Родриго, Алехандро Бассано
В ролях:
Урсула Корберо, Ициар Итуньо, Альваро Морте, Педро Алонсо, Альба Флорес, Мигель Эрран, Хайме Лорэнте, Эстер Асебо, Энрике Арсе
Описание:
Действие разворачивается вокруг группы авантюристов во главе с «Профессором», планирующих ограбление Испанского королевского монетного двора...

Качество: WEB-DL 1080p
Формат: МКV
Видео: 1920x1080 (16:9), 25.000 fps, MPEG-4 AVC ~2740-4220 kbps
Аудио №1: 48.0 kHz, AC3 Dolby Digital, 2/0 (L,R) ch, ~192 kbps | RUS / MVO
Аудио №2: 48.0 kHz, Enhanced Audio Coding 3, 2/0 (L,R) ch, ~128 kbps | SPA
Субтитры: английские (full)
General
Unique ID : 135389168551386513853802329802051329984 (0x65DB0160F81501CF0109CB9434CE9FC0)
Complete name : La.Casa.De.Papel.S02E01.1080p.TVShows.mkv
Format : Matroska
Format version : Version 4
File size : 1.35 GiB
Duration : 42 min 56 s
Overall bit rate mode : Variable
Overall bit rate : 4 496 kb/s
Encoded date : UTC 2019-10-25 11:49:24
Writing application : mkvmerge v33.1.0 ('Primrose') 64-bit
Writing library : libebml v1.3.7 + libmatroska v1.5.0
Video
ID : 1
Format : AVC
Format/Info : Advanced Video Codec
Format profile : [email protected]
Format settings : CABAC / 3 Ref Frames
Format settings, CABAC : Yes
Format settings, Reference frames : 3 frames
Codec ID : V_MPEG4/ISO/AVC
Duration : 42 min 56 s
Bit rate mode : Variable
Bit rate : 4 220 kb/s
Maximum bit rate : 6 330 kb/s
Width : 1 920 pixels
Height : 1 080 pixels
Display aspect ratio : 16:9
Frame rate mode : Constant
Frame rate : 25.000 FPS
Color space : YUV
Chroma subsampling : 4:2:0
Bit depth : 8 bits
Scan type : Progressive
Bits/(Pixel*Frame) : 0.081
Stream size : 1.25 GiB (93%)
Writing library : x264 core 148
Encoding settings : cabac=1 / ref=3 / deblock=1:0:0 / analyse=0x1:0x111 / me=umh / subme=10 / psy=1 / psy_rd=1.00:0.00 / mixed_ref=1 / me_range=24 / chroma_me=1 / trellis=2 / 8x8dct=0 / cqm=0 / deadzone=21,11 / fast_pskip=1 / chroma_qp_offset=-2 / threads=8 / lookahead_threads=1 / sliced_threads=0 / nr=0 / decimate=1 / interlaced=0 / bluray_compat=0 / stitchable=1 / constrained_intra=0 / bframes=2 / b_pyramid=0 / b_adapt=2 / b_bias=0 / direct=3 / weightb=1 / open_gop=0 / weightp=2 / keyint=50 / keyint_min=26 / scenecut=0 / intra_refresh=0 / rc_lookahead=50 / rc=2pass / mbtree=1 / bitrate=4220 / ratetol=1.0 / qcomp=0.50 / qpmin=6 / qpmax=51 / qpstep=4 / cplxblur=20.0 / qblur=0.5 / vbv_maxrate=6330 / vbv_bufsize=8440 / nal_hrd=vbr / filler=0 / ip_ratio=1.40 / aq=1:1.00
Default : Yes
Forced : No
Audio #1
ID : 2
Format : AC-3
Format/Info : Audio Coding 3
Commercial name : Dolby Digital
Codec ID : A_AC3
Duration : 42 min 56 s
Bit rate mode : Constant
Bit rate : 192 kb/s
Channel(s) : 2 channels
Channel layout : L R
Sampling rate : 48.0 kHz
Frame rate : 31.250 FPS (1536 SPF)
Compression mode : Lossy
Stream size : 59.0 MiB (4%)
Title : TVShows
Language : Russian
Service kind : Complete Main
Default : Yes
Forced : Yes
Audio #2
ID : 3
Format : E-AC-3
Format/Info : Enhanced AC-3
Commercial name : Dolby Digital Plus
Codec ID : A_EAC3
Duration : 42 min 56 s
Bit rate mode : Constant
Bit rate : 128 kb/s
Channel(s) : 2 channels
Channel layout : L R
Sampling rate : 48.0 kHz
Frame rate : 31.250 FPS (1536 SPF)
Compression mode : Lossy
Stream size : 39.3 MiB (3%)
Title : Original
Language : Spanish
Service kind : Complete Main
Default : No
Forced : No
Text
ID : 4
Format : UTF-8
Codec ID : S_TEXT/UTF8
Codec ID/Info : UTF-8 Plain Text
Duration : 42 min 29 s
Bit rate : 51 b/s
Count of elements : 502
Stream size : 16.0 KiB (0%)
Title : English
Language : English
Default : No
Forced : No

Этот торрент недоступен для скачивания без регистрации, однако доступен по публичной magnet-ссылке (источники с публичных трекеров). Перед использованием ссылки прочтите, пожалуйста Пользовательское соглашение, а также как можно дольше оставайтесь на раздаче! Для того, чтобы скачать сам торрент-файл (который видит больше источников), а также для того, чтобы поблагодарить релизера, вам необходимо зарегистрироваться. Если регистрироваться лень - вы можете также попробовать скачать релиз по нашим партнерским ссылкам ниже. Кроме того, зарегистрированным пользователям не показывается всплывающая реклама при скачивании.

[underver.se].t196219.torrent
Трекер: Зарегистрирован   [ 22.01.2021 21:22 ]  
Статус: проверено (by makkol at 24.01.2021 20:42)
Поблагодарили: 1 человек
Тип торрента: публичный - доступные источники с открытых трекеров: 
Размер: 11.5 GB (занимает 2.63 DVDR, для записи нужно 3 болванки DVDR/RW)
 
 

Яндекс.Метрика powered by Sphinx


В Н И М А Н И Е
Сайт не распространяет и не хранит электронные версии произведений, а лишь бесплатно и без коммерческой выгоды (не требуя взамен платы,
SMS и т.д.) предоставляет доступ к создаваемому пользователями каталогу ссылок на торрент-файлы, которые содержат только списки хеш-сумм.
Убедительная просьба с жалобами обращаться напрямую к пользователю, разместившему торрент файл.

Вверх