Loading...
Error

Бумажный дом / Money Heist / La Casa de Papel / Cезон: 1 / Серии: 1-13 из 13 (Хесус Кольменар, Алекс Родриго, Алехандро Бассано) [2017, боевик, триллер, криминал, детектив, WEB-DL 1080p] MVO (LostFilm) + Original + Sub (Rus/Eng)

Статистика раздачи
Размер:  16.46 GB   |    Зарегистрирован:  1 год 8 месяцев   |    Скачан:  34 раза

Полного источника не было: 6 дней

Сидов:  0  |  0 KB/s  ]   Личеров:  0  |  0 KB/s  ]

* - сиды/пиры с внешних источников

   
 
Автор Сообщение

Konin Пол:Муж

22-Янв-2021 21:36

Бумажный дом / Money Heist / La Casa de Papel

Год выпуска: 2017
Страна: Испания
Производство: Vancouver Media, NetFlix
Жанр: боевик, триллер, криминал, детектив
Продолжительность: ~00:48:00
Перевод: Профессиональный (многоголосый, закадровый) | LostFilm
Режиссеры:
Хесус Кольменар, Алекс Родриго, Алехандро Бассано
В ролях:
Урсула Корберо, Ициар Итуньо, Альваро Морте, Педро Алонсо, Альба Флорес, Мигель Эрран, Хайме Лорэнте, Эстер Асебо, Энрике Арсе
Описание:
Действие разворачивается вокруг группы авантюристов во главе с «Профессором», планирующих ограбление Испанского королевского монетного двора...

Качество: WEB-DL 1080p | Релиз: kogesan
Формат: МКV
Видео: 1920x1080 at 25.000 fps, MPEG-4 AVC, ~4020 kbps avg
Аудио#1: Russian: 48 kHz, AC3, 2/0 (L,R) ch, ~384.00 kbps avg
Аудио#2: English: 48 kHz, E-AC3, 2/0 (L,R) ch, ~128.00 kbps avg
Субтитры: Русские (Netflix), английские (SDH)
01. «Согласованные действия»
02. «Смертельное безрассудство»
03. «Ошибка при стрельбе»
04. «Троянский конь»
05. «День сурка»
06. «Горячая холодная война»
07. «Холодная нестабильность»
08. «Вы искали его»
09. «Если пытаться, всё получится»
10. «Маски закончились»
11. «Руководитель плана»
12. «Вопрос эффективности»
13. «Что мы наделали?»
Общее
Уникальный идентификатор : 131015121861414514937296303662884529036 (0x6290983A115A6D05A78231161C25238C)
Полное имя : La.Casa.de.Papel.S01.WEBRip.1080p.LostFilmLa.Casa.de.Papel.S01E01.WEBRip.1080p.LF.mkv
Формат : Matroska
Версия формата : Version 4
Размер файла : 1,50 Гбайт
Продолжительность : 47 м. 28 с.
Режим общего битрейта : Переменный
Общий поток : 4 510 Кбит/сек
Дата кодирования : UTC 2020-08-10 16:04:59 / UTC 2018-01-12 07:42:35
Программа кодирования : mkvmerge v49.0.0 ('Sick Of Losing Soulmates') 64-bit
Библиотека кодирования : libebml v1.4.0 + libmatroska v1.6.1 / Lavf58.0.0
Видео
Идентификатор : 1
Формат : AVC
Формат/Информация : Advanced Video Codec
Профиль формата : [email protected]
Настройки формата : CABAC / 3 Ref Frames
Параметр CABAC формата : Да
Параметр RefFrames формата : 3 кадра
Идентификатор кодека : V_MPEG4/ISO/AVC
Продолжительность : 47 м. 28 с.
Вид битрейта : Переменный
Битрейт : 4 020 Кбит/сек
Максимальный битрейт : 6 030 Кбит/сек
Ширина : 1 920 пикселей
Высота : 1 080 пикселей
Соотношение сторон : 16:9
Режим частоты кадров : Постоянный
Частота кадров : 25,000 кадров/сек
Цветовое пространство : YUV
Субдискретизация насыщенности : 4:2:0
Битовая глубина : 8 бит
Тип развёртки : Прогрессивная
Бит/(Пиксели*Кадры) : 0.078
Размер потока : 1,30 Гбайт (87%)
Библиотека кодирования : x264 core 148
Настройки программы : cabac=1 / ref=3 / deblock=1:0:0 / analyse=0x1:0x111 / me=umh / subme=10 / psy=1 / psy_rd=1.00:0.00 / mixed_ref=1 / me_range=24 / chroma_me=1 / trellis=2 / 8x8dct=0 / cqm=0 / deadzone=21,11 / fast_pskip=1 / chroma_qp_offset=-2 / threads=6 / lookahead_threads=1 / sliced_threads=0 / nr=0 / decimate=1 / interlaced=0 / bluray_compat=0 / stitchable=1 / constrained_intra=0 / bframes=2 / b_pyramid=0 / b_adapt=2 / b_bias=0 / direct=3 / weightb=1 / open_gop=0 / weightp=2 / keyint=50 / keyint_min=26 / scenecut=0 / intra_refresh=0 / rc_lookahead=50 / rc=2pass / mbtree=1 / bitrate=4020 / ratetol=1.0 / qcomp=0.50 / qpmin=6 / qpmax=51 / qpstep=4 / cplxblur=20.0 / qblur=0.5 / vbv_maxrate=6030 / vbv_bufsize=8040 / nal_hrd=vbr / filler=0 / ip_ratio=1.40 / aq=1:1.00
Язык : English
Default : Да
Forced : Нет
Statistics Tags Issue : mkvmerge v49.0.0 ('Sick Of Losing Soulmates') 64-bit 2020-08-10 16:04:59 / mkvmerge v49.0.0 ('Sick Of Losing Soulmates') 64-bit 2020-08-10 16:04:59 / UTC 2018-01-12 07:42:35
FromStats_BitRate : 3996144
FromStats_Duration : 00:47:28.200000000
FromStats_FrameCount : 71205
FromStats_StreamSize : 1422727311
Duration_Source : General_Duration
Аудио #1
Идентификатор : 2
Формат : AC-3
Формат/Информация : Audio Coding 3
Коммерческое название : Dolby Digital
Идентификатор кодека : A_AC3
Продолжительность : 47 м. 28 с.
Вид битрейта : Постоянный
Битрейт : 384 Кбит/сек
Каналы : 2 канала
Channel layout : L R
Частота : 48,0 КГц
Частота кадров : 31,250 кадров/сек (1536 SPF)
Метод сжатия : С потерями
Размер потока : 130 Мбайт (9%)
Язык : Russian
Service kind : Complete Main
Default : Да
Forced : Нет
Statistics Tags Issue : mkvmerge v49.0.0 ('Sick Of Losing Soulmates') 64-bit 2020-08-10 16:04:59 / mkvmerge v49.0.0 ('Sick Of Losing Soulmates') 64-bit 2020-08-10 16:04:59 / UTC 2018-01-12 07:42:35
FromStats_BitRate : 384000
FromStats_Duration : 00:47:28.288000000
FromStats_FrameCount : 89009
FromStats_StreamSize : 136717824
Duration_Source : General_Duration
Аудио #2
Идентификатор : 3
Формат : E-AC-3
Формат/Информация : Enhanced AC-3
Коммерческое название : Dolby Digital Plus
Идентификатор кодека : A_EAC3
Продолжительность : 47 м. 28 с.
Вид битрейта : Постоянный
Битрейт : 128 Кбит/сек
Каналы : 2 канала
Channel layout : L R
Частота : 48,0 КГц
Частота кадров : 31,250 кадров/сек (1536 SPF)
Метод сжатия : С потерями
Размер потока : 43,5 Мбайт (3%)
Язык : Spanish
Service kind : Complete Main
Default : Нет
Forced : Нет
Дата кодирования : UTC 2018-01-12 07:42:35
Statistics Tags Issue : mkvmerge v49.0.0 ('Sick Of Losing Soulmates') 64-bit 2020-08-10 16:04:59 / mkvmerge v49.0.0 ('Sick Of Losing Soulmates') 64-bit 2020-08-10 16:04:59 / UTC 2018-01-12 07:42:35
FromStats_BitRate : 128000
FromStats_Duration : 00:47:28.288000000
FromStats_FrameCount : 89009
FromStats_StreamSize : 45572608
Duration_Source : General_Duration
Текст #1
Идентификатор : 4
Формат : UTF-8
Идентификатор кодека : S_TEXT/UTF8
Идентификатор кодека/Информация : UTF-8 Plain Text
Язык : Russian
Default : Нет
Forced : Нет
Statistics Tags Issue : mkvmerge v49.0.0 ('Sick Of Losing Soulmates') 64-bit 2020-08-10 16:04:59 / mkvmerge v49.0.0 ('Sick Of Losing Soulmates') 64-bit 2020-08-10 16:04:59 / UTC 2018-01-12 07:42:35
FromStats_BitRate : 98
FromStats_Duration : 00:47:08.480000000
FromStats_FrameCount : 629
FromStats_StreamSize : 34866
Текст #2
Идентификатор : 5
Формат : UTF-8
Идентификатор кодека : S_TEXT/UTF8
Идентификатор кодека/Информация : UTF-8 Plain Text
Заголовок : English
Язык : English
Default : Нет
Forced : Нет
Statistics Tags Issue : mkvmerge v49.0.0 ('Sick Of Losing Soulmates') 64-bit 2020-08-10 16:04:59 / mkvmerge v49.0.0 ('Sick Of Losing Soulmates') 64-bit 2020-08-10 16:04:59 / UTC 2018-01-12 07:42:35
FromStats_BitRate : 58
FromStats_Duration : 00:46:31.560000000
FromStats_FrameCount : 597
FromStats_StreamSize : 20491

Этот торрент недоступен для скачивания без регистрации, однако доступен по публичной magnet-ссылке (источники с публичных трекеров). Перед использованием ссылки прочтите, пожалуйста Пользовательское соглашение, а также как можно дольше оставайтесь на раздаче! Для того, чтобы скачать сам торрент-файл (который видит больше источников), а также для того, чтобы поблагодарить релизера, вам необходимо зарегистрироваться. Если регистрироваться лень - вы можете также попробовать скачать релиз по нашим партнерским ссылкам ниже. Кроме того, зарегистрированным пользователям не показывается всплывающая реклама при скачивании.

[underver.se].t196222.torrent
Трекер: Зарегистрирован   [ 22.01.2021 21:36 ]  
Статус: проверено (by makkol at 24.01.2021 20:45)
Поблагодарили: пока никто не поблагодарил...
Тип торрента: публичный - доступные источники с открытых трекеров: 
Размер: 16.46 GB (занимает 3.76 DVDR, для записи нужно 4 болванки DVDR/RW)
 
 

Яндекс.Метрика powered by Sphinx


В Н И М А Н И Е
Сайт не распространяет и не хранит электронные версии произведений, а лишь бесплатно и без коммерческой выгоды (не требуя взамен платы,
SMS и т.д.) предоставляет доступ к создаваемому пользователями каталогу ссылок на торрент-файлы, которые содержат только списки хеш-сумм.
Убедительная просьба с жалобами обращаться напрямую к пользователю, разместившему торрент файл.

Вверх