Loading...
Error

(Alternative Rock, Indie Rock) Dream Wife - So When You Gonna... (2020) [FLAC (Tracks+.Cue), Lossless]

Статистика раздачи
Размер:  253 MB   |    Зарегистрирован:  1 месяц 24 дня   |    Скачан:  1 раз

Полного источника не было: 8 дней

Сидов:  0  |  0 KB/s  ]   Личеров:  0  |  0 KB/s  ]

* - сиды/пиры с внешних источников

   
 
Автор Сообщение

Бишеп Пол:Муж

25-Фев-2021 05:40

Dream Wife - So When You Gonna...

Жанр: Alternative Rock, Indie Rock
Год выпуска: 2020
Носитель: CD
Производитель диска: Lucky Number - LUCKY141RTC
Аудиокодек: FLAC
Тип рипа: Tracks+.CUE
Битрейт аудио: lossless
Продолжительность: 00:40:25


Треклист:
01. Sports! (03:25)
02. Hasta la Vista (03:42)
03. Homesick (03:03)
04. Validation (02:55)
05. Temporary (02:56)
06. U Do U (03:44)
07. RH RN (03:31)
08. Old Flame (03:43)
09. So When You Gonna (03:39)
10. Hold Me (03:58)
11. After the Rain (05:49)

Exact Audio Copy V1.5 from 20. February 2020 

EAC extraction logfile from 23. December 2020, 9:45

Dream Wife / So When You Gonna...

Used drive : hp HLDS DVDRW GUD1N Adapter: 1 ID: 0

Read mode : Secure
Utilize accurate stream : Yes
Defeat audio cache : Yes
Make use of C2 pointers : No

Read offset correction : 6
Overread into Lead-In and Lead-Out : No
Fill up missing offset samples with silence : Yes
Delete leading and trailing silent blocks : No
Null samples used in CRC calculations : Yes
Used interface : Native Win32 interface for Win NT & 2000
Gap handling : Appended to previous track

Used output format : User Defined Encoder
Selected bitrate : 1024 kBit/s
Quality : High
Add ID3 tag : No
Command line compressor : C:\Program Files (x86)\Exact Audio Copy\Flac\flac.exe
Additional command line options : -8 -V -T "ARTIST=%artist%" -T "TITLE=%title%" -T "ALBUM=%albumtitle%" -T "DATE=%year%" -T "TRACKNUMBER=%tracknr%" -T "GENRE=%genre%" -T "PERFORMER=%albuminterpret%" -T "COMPOSER=%composer%" %haslyrics%--tag-from-file=LYRICS="%lyricsfile%"%haslyrics% -T "ALBUMARTIST=%albumartist%" -T "DISCNUMBER=%cdnumber%" -T "TOTALDISCS=%totalcds%" -T "TOTALTRACKS=%numtracks%" -T "COMMENT=%comment%" %source% -o %dest%

TOC of the extracted CD

Track | Start | Length | Start sector | End sector
---------------------------------------------------------
1 | 0:00.00 | 3:24.52 | 0 | 15351
2 | 3:24.52 | 3:42.16 | 15352 | 32017
3 | 7:06.68 | 3:03.25 | 32018 | 45767
4 | 10:10.18 | 2:54.43 | 45768 | 58860
5 | 13:04.61 | 2:55.69 | 58861 | 72054
6 | 16:00.55 | 3:43.62 | 72055 | 88841
7 | 19:44.42 | 3:31.13 | 88842 | 104679
8 | 23:15.55 | 3:43.23 | 104680 | 121427
9 | 26:59.03 | 3:39.10 | 121428 | 137862
10 | 30:38.13 | 3:58.29 | 137863 | 155741
11 | 34:36.42 | 5:48.60 | 155742 | 181901

Track 1

Filename C:\Users\mudvi\Music\EAC Rips\Dream Wife - So When You Gonna... (2020) - FLAC\01 - Sports!.wav

Pre-gap length 0:00:02.00

Peak level 99.7 %
Extraction speed 1.1 X
Track quality 100.0 %
Test CRC 6F0BB055
Copy CRC 6F0BB055
Accurately ripped (confidence 1) [3582B268] (AR v2)
Copy OK

Track 2

Filename C:\Users\mudvi\Music\EAC Rips\Dream Wife - So When You Gonna... (2020) - FLAC\02 - Hasta la Vista.wav

Peak level 100.0 %
Extraction speed 1.2 X
Track quality 100.0 %
Test CRC 37B7F2C7
Copy CRC 37B7F2C7
Accurately ripped (confidence 1) [882A175B] (AR v2)
Copy OK

Track 3

Filename C:\Users\mudvi\Music\EAC Rips\Dream Wife - So When You Gonna... (2020) - FLAC\03 - Homesick.wav

Peak level 98.7 %
Extraction speed 1.3 X
Track quality 100.0 %
Test CRC 514C3FF0
Copy CRC 514C3FF0
Accurately ripped (confidence 1) [44A259AD] (AR v2)
Copy OK

Track 4

Filename C:\Users\mudvi\Music\EAC Rips\Dream Wife - So When You Gonna... (2020) - FLAC\04 - Validation.wav

Peak level 98.1 %
Extraction speed 1.3 X
Track quality 100.0 %
Test CRC 88323ADB
Copy CRC 88323ADB
Accurately ripped (confidence 1) [8367DA00] (AR v2)
Copy OK

Track 5

Filename C:\Users\mudvi\Music\EAC Rips\Dream Wife - So When You Gonna... (2020) - FLAC\05 - Temporary.wav

Peak level 95.8 %
Extraction speed 1.2 X
Track quality 99.9 %
Test CRC D8120035
Copy CRC D8120035
Accurately ripped (confidence 1) [204C90D2] (AR v2)
Copy OK

Track 6

Filename C:\Users\mudvi\Music\EAC Rips\Dream Wife - So When You Gonna... (2020) - FLAC\06 - U Do U.wav

Peak level 95.8 %
Extraction speed 1.6 X
Track quality 100.0 %
Test CRC D331C7BD
Copy CRC D331C7BD
Accurately ripped (confidence 1) [F5FF7AF6] (AR v2)
Copy OK

Track 7

Filename C:\Users\mudvi\Music\EAC Rips\Dream Wife - So When You Gonna... (2020) - FLAC\07 - RH RN.wav

Peak level 98.9 %
Extraction speed 1.4 X
Track quality 99.9 %
Test CRC C866DEA5
Copy CRC C866DEA5
Accurately ripped (confidence 1) [18554CE2] (AR v2)
Copy OK

Track 8

Filename C:\Users\mudvi\Music\EAC Rips\Dream Wife - So When You Gonna... (2020) - FLAC\08 - Old Flame.wav

Peak level 100.0 %
Extraction speed 1.7 X
Track quality 100.0 %
Test CRC D497566C
Copy CRC D497566C
Accurately ripped (confidence 1) [C97F503B] (AR v2)
Copy OK

Track 9

Filename C:\Users\mudvi\Music\EAC Rips\Dream Wife - So When You Gonna... (2020) - FLAC\09 - So When You Gonna.wav

Peak level 100.0 %
Extraction speed 1.6 X
Track quality 99.9 %
Test CRC D9D5DFB6
Copy CRC D9D5DFB6
Accurately ripped (confidence 1) [574F8626] (AR v2)
Copy OK

Track 10

Filename C:\Users\mudvi\Music\EAC Rips\Dream Wife - So When You Gonna... (2020) - FLAC\10 - Hold Me.wav

Peak level 98.9 %
Extraction speed 1.7 X
Track quality 99.9 %
Test CRC 4B16CFD9
Copy CRC 4B16CFD9
Accurately ripped (confidence 1) [1CEBC9DF] (AR v2)
Copy OK

Track 11

Filename C:\Users\mudvi\Music\EAC Rips\Dream Wife - So When You Gonna... (2020) - FLAC\11 - After the Rain.wav

Peak level 95.4 %
Extraction speed 2.1 X
Track quality 100.0 %
Test CRC EC62EE91
Copy CRC EC62EE91
Accurately ripped (confidence 1) [641EBFC5] (AR v2)
Copy OK

All tracks accurately ripped

No errors occurred

End of status report

---- CUETools DB Plugin V2.1.6

[CTDB TOCID: 71wdVMtnmmBQ79q303rbpTaCP2c-] found
Submit result: 71wdVMtnmmBQ79q303rbpTaCP2c- has been confirmed
Track | CTDB Status
1 | (11/11) Accurately ripped
2 | (11/11) Accurately ripped
3 | (11/11) Accurately ripped
4 | (11/11) Accurately ripped
5 | (11/11) Accurately ripped
6 | (11/11) Accurately ripped
7 | (11/11) Accurately ripped
8 | (11/11) Accurately ripped
9 | (11/11) Accurately ripped
10 | (11/11) Accurately ripped
11 | (11/11) Accurately ripped

==== Log checksum AFFB758EFF7CAB62ABAD21476B0144EA8D873D2C57F26D9141EAD79639A3BFB7 ====
REM GENRE "Indie Rock" 
REM DATE 2020
REM DISCID 9309790B
REM COMMENT "ExactAudioCopy v1.5"
CATALOG 0689492200220
PERFORMER "Dream Wife"
TITLE "So When You Gonna..."
REM COMPOSER ""
FILE "01 - Sports!.wav" WAVE
TRACK 01 AUDIO
TITLE "Sports!"
PERFORMER "Dream Wife"
REM COMPOSER ""
ISRC GBJET2000002
FLAGS DCP
INDEX 01 00:00:00
FILE "02 - Hasta la Vista.wav" WAVE
TRACK 02 AUDIO
TITLE "Hasta la Vista"
PERFORMER "Dream Wife"
REM COMPOSER ""
ISRC GBJET2000003
FLAGS DCP
INDEX 01 00:00:00
FILE "03 - Homesick.wav" WAVE
TRACK 03 AUDIO
TITLE "Homesick"
PERFORMER "Dream Wife"
REM COMPOSER ""
ISRC GBJET2000004
FLAGS DCP
INDEX 01 00:00:00
FILE "04 - Validation.wav" WAVE
TRACK 04 AUDIO
TITLE "Validation"
PERFORMER "Dream Wife"
REM COMPOSER ""
ISRC GBJET2000005
FLAGS DCP
INDEX 01 00:00:00
FILE "05 - Temporary.wav" WAVE
TRACK 05 AUDIO
TITLE "Temporary"
PERFORMER "Dream Wife"
REM COMPOSER ""
ISRC GBJET2000006
FLAGS DCP
INDEX 01 00:00:00
FILE "06 - U Do U.wav" WAVE
TRACK 06 AUDIO
TITLE "U Do U"
PERFORMER "Dream Wife"
REM COMPOSER ""
ISRC GBJET2000007
FLAGS DCP
INDEX 01 00:00:00
FILE "07 - RH RN.wav" WAVE
TRACK 07 AUDIO
TITLE "RH RN"
PERFORMER "Dream Wife"
REM COMPOSER ""
ISRC GBJET2000008
FLAGS DCP
INDEX 01 00:00:00
FILE "08 - Old Flame.wav" WAVE
TRACK 08 AUDIO
TITLE "Old Flame"
PERFORMER "Dream Wife"
REM COMPOSER ""
ISRC GBJET2000009
FLAGS DCP
INDEX 01 00:00:00
FILE "09 - So When You Gonna.wav" WAVE
TRACK 09 AUDIO
TITLE "So When You Gonna"
PERFORMER "Dream Wife"
REM COMPOSER ""
ISRC GBJET2000010
FLAGS DCP
INDEX 01 00:00:00
FILE "10 - Hold Me.wav" WAVE
TRACK 10 AUDIO
TITLE "Hold Me"
PERFORMER "Dream Wife"
REM COMPOSER ""
ISRC GBJET2000011
FLAGS DCP
INDEX 01 00:00:00
FILE "11 - After the Rain.wav" WAVE
TRACK 11 AUDIO
TITLE "After the Rain"
PERFORMER "Dream Wife"
REM COMPOSER ""
ISRC GBJET2000012
FLAGS DCP
INDEX 01 00:00:00

Этот торрент недоступен для скачивания без регистрации, однако доступен по публичной magnet-ссылке (источники с публичных трекеров). Перед использованием ссылки прочтите, пожалуйста Пользовательское соглашение, а также как можно дольше оставайтесь на раздаче! Для того, чтобы скачать сам торрент-файл (который видит больше источников), а также для того, чтобы поблагодарить релизера, вам необходимо зарегистрироваться. Если регистрироваться лень - вы можете также попробовать скачать релиз по нашим партнерским ссылкам ниже. Кроме того, зарегистрированным пользователям не показывается всплывающая реклама при скачивании.

[underver.se].t200546.torrent
Трекер: Зарегистрирован   [ 25.02.2021 05:40 ]  

Статус: проверено (by Бишеп at 25.02.2021 05:40)
Поблагодарили: пока никто не поблагодарил...
Тип торрента: публичный - доступные источники с открытых трекеров: 
Размер: 253 MB (занимает 0,06 DVDR, для записи нужно 1 болванка DVDR/RW)
 
 
Похожие темы
Форум Тема Автор Торрент Отв. Посл. сооб.
Зарубежная Pop Музыка (Alternative Pop, Neo Soul, Indie) Amanda Jenssen - Sanger fran on (2015) [MP3, 320 kbps] 90ytr90
0 | 0

0 | 2018

4

23.03.2015 19:02

Зарубежная Pop Музыка (Alternative, Indie) Anna of the North - Lovers (2017) [MP3, 320 kbps CBR] Darkferse
0 | 1

0 | 1863

4

13.09.2017 08:47

Зарубежная Pop Музыка (Alternative, Pop, Soul) Plan B - Heaven Before All Hell Breaks Loose (2018) [MP3, 320 kbps CBR] 90ytr90
1 | 0

0 | 1570

3

03.06.2018 05:52

Зарубежная Pop Музыка (Alternative, Pop, Hip-Hop) Twenty One Pilots - Trench (2018) [MP3, 320 kbps CBR] 90ytr90
2 | 0

0 | 2155

11

03.10.2018 17:04

Зарубежный Hard, Progressive, Soft, Melodic, AOR, Folk, Classic Rock (Alternative Rock / Progressive Rock) Muse - The 2nd Law (2012) [MP3, 320 kbps] Jimmy
0 | 0

0 | 2436

16

27.09.2012 04:30

Зарубежный Hard, Progressive, Soft, Melodic, AOR, Folk, Classic Rock (Alternative, Rock, Folk Rock) Valley Of Wolves - Out For Blood (2018) [MP3, 320 kbps CBR] 90ytr90
2 | 0

0 | 1016

3

25.09.2018 15:29

Зарубежный Hard, Progressive, Soft, Melodic, AOR, Folk, Classic Rock (Alternative, Hard Rock) ZoomOut - Sold Out (2018) [MP3, 320 kbps CBR] 90ytr90
0 | 0

0 | 811

1

27.09.2018 08:47

Зарубежный Hard, Progressive, Soft, Melodic, AOR, Folk, Classic Rock (Alternative Metal, Hard Rock) Those Damn Crows - Murder and the Motive (2018) [MP3, 320 kbps CBR] 90ytr90
0 | 0

0 | 875

2

10.11.2018 15:11

Зарубежный Hard, Progressive, Soft, Melodic, AOR, Folk, Classic Rock (Alternative Rock, Hard Rock) Diamante - Coming in Hot (2018) [MP3, 320 kbps CBR] 90ytr90
0 | 0

0 | 1029

3

25.11.2018 18:42

Зарубежный Hard, Progressive, Soft, Melodic, AOR, Folk, Classic Rock (Alternative Rock, Industrial Rock) Emigrate (Richard Kruspe of Rammstein) - A Million Degrees [Limited Edition] (2018) [MP3, 320 kbps CBR] 90ytr90
2 | 0

0 | 1367

7

29.11.2018 16:45


Яндекс.Метрика powered by Sphinx


В Н И М А Н И Е
Сайт не распространяет и не хранит электронные версии произведений, а лишь бесплатно и без коммерческой выгоды (не требуя взамен платы,
SMS и т.д.) предоставляет доступ к создаваемому пользователями каталогу ссылок на торрент-файлы, которые содержат только списки хеш-сумм.
Убедительная просьба с жалобами обращаться напрямую к пользователю, разместившему торрент файл.

Вверх