Loading...
Error

Чёртов ад / Bloody Hell (Алистер Грирсон) [2020 г., ужасы, комедия, WEB-DL 1080p] MVO (@MUZOBOZ@)

Статистика раздачи
Размер:  6,44 GB   |    Зарегистрирован:  1 месяц 24 дня   |    Скачан:  16 раз

Полного источника не было: 5 дней

Сидов:  0  |  0 KB/s  ]   Личеров:  0  |  0 KB/s  ]

* - сиды/пиры с внешних источников

   
 
Автор Сообщение

Renesans Пол:Муж

25-Фев-2021 08:07

Чёртов ад / Bloody Hell


Год выхода: 2020
Страна: Австралия, США
Студия: Eclectik Vision, Entertainment Squad, Heart Sleeve Productions
Жанр: Ужасы, комедия
Продолжительность: 01:34:49
Перевод: Любительский многоголосый | MUZOBOZ

Режиссер: Алистер Грирсон
В главных ролях: Бен О’Тул, Мэг Фрейзер, Кэролайн Крэйг, Мэтью Сандерлэнд, Трэвис Джеффри, Джек Финстерер, Дэвид Хилл, Джошуа Бреннан, Эшли Лоллбек, Софиа Эмберсон-Бэйн

Описание: Бывший военный Вен Коен, во время ограбления банка, оказал сопротивление преступникам и расправился с ними. Но погибли люди. Суд приговорил его к тюремному заключению. Чрез восемь лет он выходит на свободу. Некоторые считают его героем, другие убийцей, но такое внимание к своей персоне парня напрягает. Чтобы спастись от своего личного ада, он наугад выбирает новую родину, которой оказалась снежная Финляндия. Но вместо спокойной жизни этого попадает в Чертов ад, а точнее становится пленником богатой семейки каннибалов.



Релиз от: KinoPub | Без рекламы!
Качество: WEB-DL 1080p
Видео: MPEG-4 AVC, 8935 Кбит/с, 1920x800
Звук 1: AC3, 2 ch, 256 Кбит/с | RUS
Звук 2: E-AC3, 6ch, 640 Кбит/с | ENG
Субтитры: Английские
pic pic pic
pic pic pic
Общее
Уникальный идентификатор : 158843613379826364668672185289089057486 (0x77802ACA3AED133050C39FB509D582CE)
Полное имя :KinoPub.Bloody Hell (2020) WEB-DL (1080p).mkv
Формат : Matroska
Версия формата : Version 4
Размер файла : 6,44 Гбайт
Продолжительность : 1 ч. 33 м.
Общий поток : 9 833 Кбит/сек
Название фильма : KinoPub.Bloody Hell (2020) WEB-DL (1080p)
Дата кодирования : UTC 2021-02-23 09:26:40
Программа кодирования : mkvmerge v53.0.0 ('Fool's Gold') 64-bit
Библиотека кодирования : libebml v1.4.1 + libmatroska v1.6.2

Видео
Идентификатор : 1
Формат : AVC
Формат/Информация : Advanced Video Codec
Профиль формата : High@L4
Настройки формата : CABAC / 4 Ref Frames
Параметр CABAC формата : Да
Параметр RefFrames формата : 4 кадра
Идентификатор кодека : V_MPEG4/ISO/AVC
Продолжительность : 1 ч. 33 м.
Вид битрейта : Постоянный
Битрейт : 8 935 Кбит/сек
Номинальный битрейт : 10 000 Кбит/сек
Ширина : 1 920 пикселей
Высота : 800 пикселей
Соотношение сторон : 2,40:1
Режим частоты кадров : Постоянный
Частота кадров : 24,000 кадра/сек
Цветовое пространство : YUV
Субдискретизация насыщенности : 4:2:0
Битовая глубина : 8 бит
Тип развёртки : Прогрессивная
Бит/(Пиксели*Кадры) : 0.242
Размер потока : 5,85 Гбайт (91%)
Default : Да
Forced : Нет
Цветовой диапазон : Limited
Основные цвета : BT.709
Характеристики трансфера : BT.709
Коэффициенты матрицы : BT.709

Аудио #1
Идентификатор : 2
Формат : AC-3
Формат/Информация : Audio Coding 3
Коммерческое название : Dolby Digital
Идентификатор кодека : A_AC3
Продолжительность : 1 ч. 33 м.
Вид битрейта : Постоянный
Битрейт : 256 Кбит/сек
Каналы : 2 канала
Channel layout : L R
Частота : 48,0 КГц
Частота кадров : 31,250 кадров/сек (1536 SPF)
Метод сжатия : С потерями
Размер потока : 172 Мбайт (3%)
Заголовок : MVO MUZOBOZ | KinoPub
Язык : Russian
Service kind : Complete Main
Default : Да
Forced : Нет

Аудио #2
Идентификатор : 3
Формат : E-AC-3
Формат/Информация : Enhanced AC-3
Коммерческое название : Dolby Digital Plus
Идентификатор кодека : A_EAC3
Продолжительность : 1 ч. 33 м.
Вид битрейта : Постоянный
Битрейт : 640 Кбит/сек
Каналы : 6 каналов
Channel layout : L R C LFE Ls Rs
Частота : 48,0 КГц
Частота кадров : 31,250 кадров/сек (1536 SPF)
Метод сжатия : С потерями
Размер потока : 429 Мбайт (7%)
Заголовок : Original
Язык : English
Service kind : Complete Main
Default : Нет
Forced : Нет

Текст
Идентификатор : 4
Формат : UTF-8
Идентификатор кодека : S_TEXT/UTF8
Идентификатор кодека/Информация : UTF-8 Plain Text
Продолжительность : 1 ч. 29 м.
Битрейт : 39 бит/сек
Count of elements : 1104
Размер потока : 25,9 Кбайт (0%)
Язык : English
Default : Нет
Forced : Нет

Этот торрент недоступен для скачивания без регистрации, однако доступен по публичной magnet-ссылке (источники с публичных трекеров). Перед использованием ссылки прочтите, пожалуйста Пользовательское соглашение, а также как можно дольше оставайтесь на раздаче! Для того, чтобы скачать сам торрент-файл (который видит больше источников), а также для того, чтобы поблагодарить релизера, вам необходимо зарегистрироваться. Если регистрироваться лень - вы можете также попробовать скачать релиз по нашим партнерским ссылкам ниже. Кроме того, зарегистрированным пользователям не показывается всплывающая реклама при скачивании.

[underver.se].t200551.torrent
Трекер: Зарегистрирован   [ 25.02.2021 08:07 ]  

Статус: T временная (by Robbertta at 25.02.2021 09:57)
Поблагодарили: пока никто не поблагодарил...
Тип торрента: публичный - доступные источники с открытых трекеров: 
Размер: 6,44 GB (занимает 1,47 DVDR, для записи нужно 2 болванки DVDR/RW)
 
 
Похожие темы
Форум Тема Автор Торрент Отв. Посл. сооб.
T Зарубежное кино [DVDRip, Low-Res HDRip, и т.д.] Чёртов ад / Bloody Hell (Алистер Грирсон) [2020 г., ужасы, комедия, WEB-DLRip] DVO (@MUZOBOZ@) makkol
11 | 0

0 | 599

20

16.01.2021 10:31

* Зарубежное кино [DVDRip, Low-Res HDRip, и т.д.] Чёртов ад / Bloody Hell (Алистер Грирсон) [2020 г., ужасы, комедия, WEB-DLRip] MVO (Jaskier) 90ytr90
184 | 6

0 | 100

9

10.04.2021 17:32

T Зарубежное кино [HDDVDRip / BDRip / WEB-DL / HDTV 1080/720р] Чёртов ад / Bloody Hell (Алистер Грирсон) [2020 г., ужасы, комедия, WEB-DL 1080p] DVO (@MUZOBOZ@) makkol
1 | 0

0 | 651

14

16.01.2021 10:37

* Зарубежное кино [HDDVDRip / BDRip / WEB-DL / HDTV 1080/720р] Чёртов ад / Bloody Hell (Алистер Грирсон) [2020 г., ужасы, комедия, WEB-DL 1080p] MVO (Jaskier) + Original + Sub 90ytr90
115 | 7

0 | 133

12

10.04.2021 18:00

T Зарубежное кино [HDDVDRip / BDRip / WEB-DL / HDTV 1080/720р] Чёртов ад / Bloody Hell (Алистер Грирсон) [2020 г., ужасы, комедия, WEB-DL 720p] MVO (Jaskier) + Original + Sub (Eng, Ukr) tiptop
1 | 0

0 | 305

1

12.04.2021 15:21


Яндекс.Метрика powered by Sphinx


В Н И М А Н И Е
Сайт не распространяет и не хранит электронные версии произведений, а лишь бесплатно и без коммерческой выгоды (не требуя взамен платы,
SMS и т.д.) предоставляет доступ к создаваемому пользователями каталогу ссылок на торрент-файлы, которые содержат только списки хеш-сумм.
Убедительная просьба с жалобами обращаться напрямую к пользователю, разместившему торрент файл.

Вверх