Loading...
Error

Брестская крепость (Александр Котт) [2010 г., Драма, военный, BDRip 1080p]

Статистика раздачи
Размер:  14,37 GB   |    Зарегистрирован:  1 месяц 24 дня   |    Скачан:  4 раза
Сидов:  1  |  0 KB/s  ]   Личеров:  0  |  0 KB/s  ]

* - сиды/пиры с внешних источников

   
 
Автор Сообщение

Evgenii82 Пол:Муж

25-Фев-2021 08:15

Брестская крепость


Год выпуска: 2010
Жанр: Драма, военный
Страна: Россия , Беларусь , Централ Партнершип, Беларусьфильм
Режиссер: Александр Котт
В ролях: Алексей Копашов, Андрей Мерзликин, Павел Деревянко, Александр Коршунов, Максим Костромыкин, Анна Цуканова-Котт, Сергей Цепов, Беник Аракелян, Михаил Павлик, Александр Сирин, Евгений Цыганов, Татьяна Камина, Вероника Никонова, Яна Есипович, Мадлен Джабраилова, Дмитрий Куличков, Александр Сапцов, Кирилл Болтаев, Олег Лопухов, Анатолий Кот, Нодар Джанелидзе, Максим Кречетов, Дмитрий Есеневич, Максим Литовченко, Валерий Иваков, Виктор Стрельченко, Матвей Шкуратов, Юрий Анпилогов, Антон Старовойтов, Николай Рябычин, Глеб Демьянчук, Сергей Прокопич, Юлия Полубинская, Александр Пашков, Павел Городницкий, Евгений Сангаджиев, Михаил Евланов, Сергей Таланов
Сюжет фильма:
Фильм рассказывает о героической обороне Брестской крепости, которая приняла на себя первый удар немецко-фашистских захватчиков 22 июня 1941 года. С документальной точностью описываются события, происходившие в первые дни обороны. Фильм рассказывает о главных трёх очагах сопротивления, возглавляемых командиром полка Петром Гавриловым, комиссаром Ефимом Фоминым и начальником 9-й погранзаставы Андреем Кижеватовым.


Качество видео: BDRip 1080p

Продолжительность: 02:18:19
Формат: MKV
Видео: MPEG-4 AVC, 1920x818, 14.1 Мбит/с
Аудио: русский, AC3 5.1, 448 Кбит/с

Код:

General
Unique ID                      : 198155438862474727658114332904805819543 (0x9513596E021FDEE49F7DB924127EE497)
Complete name                  : G:\Brestskaya.Krepost.2010.BDRip.1080p.tRuAVC.mkv
Format                         : Matroska
Format version                 : Version 2
File size                      : 14.4 GiB
Duration                       : 2 h 18 min
Overall bit rate               : 14.9 Mb/s
Movie name                     : Брестская крепость (2010) [tRuAVC] [Geralt iz Rivii]
Encoded date                   : UTC 2011-01-05 20:47:44
Writing application            : mkvmerge v3.4.0 ('Rapunzel') built on May 15 2010 09:38:20
Writing library                : libebml v0.8.0 + libmatroska v0.9.0
Cover                          : Yes
Attachments                    : Cover.jpg

Video
ID                             : 1
Format                         : AVC
Format/Info                    : Advanced Video Codec
Format profile                 : High@L4.1
Format settings                : CABAC / 4 Ref Frames
Format settings, CABAC         : Yes
Format settings, Reference fra : 4 frames
Codec ID                       : V_MPEG4/ISO/AVC
Duration                       : 2 h 18 min
Bit rate                       : 14.1 Mb/s
Width                          : 1 920 pixels
Height                         : 818 pixels
Display aspect ratio           : 2.35:1
Frame rate mode                : Constant
Frame rate                     : 24.000 FPS
Color space                    : YUV
Chroma subsampling             : 4:2:0
Bit depth                      : 8 bits
Scan type                      : Progressive
Bits/(Pixel*Frame)             : 0.375
Stream size                    : 13.6 GiB (95%)
Title                          : Брестская крепость (2010) [tRuAVC] [Geralt iz Rivii]
Writing library                : x264 core 112 r1834kMod a51816a
Encoding settings              : cabac=1 / ref=4 / deblock=1:-3:-2 / analyse=0x3:0x133 / me=umh / subme=10 / psy=1 / psy_rd=0.90:0.00 / mixed_ref=1 / me_range=40 / chroma_me=1 / trellis=2 / 8x8dct=1 / cqm=0 / deadzone=21,11 / fast_pskip=1 / chroma_qp_offset=-2 / threads=12 / sliced_threads=0 / nr=0 / decimate=1 / interlaced=0 / constrained_intra=0 / bframes=9 / b_pyramid=2 / b_adapt=2 / b_bias=0 / direct=3 / weightb=1 / open_gop=0 / weightp=2 / keyint=250 / keyint_min=24 / scenecut=40 / intra_refresh=0 / rc_lookahead=0 / rc=crf / mbtree=0 / crf=18.7000 / qcomp=0.60 / qpmin=0 / qpmax=51 / qpstep=4 / vbv_maxrate=50000 / vbv_bufsize=62500 / crf_max=0.0 / ip_ratio=1.40 / pb_ratio=1.30 / aq=1:0.70 / nal_hrd=none
Language                       : Russian
Default                        : Yes
Forced                         : No
Color range                    : Limited
Matrix coefficients            : BT.709

Audio
ID                             : 2
Format                         : AC-3
Format/Info                    : Audio Coding 3
Commercial name                : Dolby Digital
Codec ID                       : A_AC3
Duration                       : 2 h 18 min
Bit rate mode                  : Constant
Bit rate                       : 448 kb/s
Channel(s)                     : 6 channels
Channel layout                 : L R C LFE Ls Rs
Sampling rate                  : 48.0 kHz
Frame rate                     : 31.250 FPS (1536 SPF)
Compression mode               : Lossy
Stream size                    : 443 MiB (3%)
Title                          : 48 kHz, AC-3, 5.1 ch, 448 kbps
Language                       : Russian
Service kind                   : Complete Main
Default                        : Yes
Forced                         : No

Menu
00:00:00.000                   : ru:1
00:11:02.542                   : ru:2
00:21:47.417                   : ru:3
00:31:26.250                   : ru:4
00:40:47.250                   : ru:5
00:52:59.584                   : ru:6
01:04:19.125                   : ru:7
01:20:50.709                   : ru:8
01:29:47.084                   : ru:9
01:42:03.000                   : ru:10
01:50:58.375                   : ru:11
01:59:30.750                   : ru:12

Золотой орел, 2011 год
• Победитель:
- Лучший монтаж
- Лучшая работа звукорежиссера
• Номинации:
- Лучший фильм

Ника, 2011 год
• Победитель:
- Лучшие костюмы
- Лучший звук
- Лучшая работа художника-постановщика
• Номинации:
- Лучший фильм
- Лучшая мужская роль (Павел Деревянко)
- Лучшая мужская роль второго плана (Евгений Цыганов)
- Открытие года (Алексей Копашов)
- Лучший режиссер (Александр Котт)

Жорж, 2011 год
• Победитель:
- Лучший российский экшн
- Лучшая российская драма

Этот торрент недоступен для скачивания без регистрации, однако доступен по публичной magnet-ссылке (источники с публичных трекеров). Перед использованием ссылки прочтите, пожалуйста Пользовательское соглашение, а также как можно дольше оставайтесь на раздаче! Для того, чтобы скачать сам торрент-файл (который видит больше источников), а также для того, чтобы поблагодарить релизера, вам необходимо зарегистрироваться. Если регистрироваться лень - вы можете также попробовать скачать релиз по нашим партнерским ссылкам ниже. Кроме того, зарегистрированным пользователям не показывается всплывающая реклама при скачивании.

[underver.se].t200554.torrent
Трекер: Зарегистрирован   [ 25.02.2021 08:15 ]  

Статус: проверено (by Evgenii82 at 25.02.2021 08:17)
Поблагодарили: 1 человек
Тип торрента: публичный - доступные источники с открытых трекеров: 
Размер: 14,37 GB (занимает 3,28 DVDR, для записи нужно 4 болванки DVDR/RW)
 
 
Похожие темы
Форум Тема Автор Торрент Отв. Посл. сооб.
Наше кино [HDDVDRip / BDRip / WEB-DL / HDTV 1080/720р] Брестская крепость / Fortress of War (Александр Котт / Aleksandr Kott) [2010, драма, военный, BDRip 720p] uzi2009
1 | 0

0 | 1407

14

23.02.2014 22:02

Архив (художественные фильмы) Брестская крепость (Александр Котт) [2010 г., драма,DVDRip] BartSimpson
0 | 0

9 | 3296

24

31.01.2018 16:38

Архив (наше кино высокого качества) Брестская крепость (Александр Котт ) [2010 г., военный, драма, DVD-9] SKRiptus
0 | 0

1 | 1870

27

31.01.2018 18:49


Яндекс.Метрика powered by Sphinx


В Н И М А Н И Е
Сайт не распространяет и не хранит электронные версии произведений, а лишь бесплатно и без коммерческой выгоды (не требуя взамен платы,
SMS и т.д.) предоставляет доступ к создаваемому пользователями каталогу ссылок на торрент-файлы, которые содержат только списки хеш-сумм.
Убедительная просьба с жалобами обращаться напрямую к пользователю, разместившему торрент файл.

Вверх