Loading...
Error

(Rock, Blues Rock) The Pat McManus Band - Full Service Resumed (2020) [FLAC (Tracks+.Cue), Lossless]

Статистика раздачи
Размер:  339 MB   |    Зарегистрирован:  1 месяц 24 дня   |    Скачан:  1 раз

Полного источника не было: 5 дней

Сидов:  0  |  0 KB/s  ]   Личеров:  0  |  0 KB/s  ]

* - сиды/пиры с внешних источников

   
 
Автор Сообщение

Бишеп Пол:Муж

25-Фев-2021 08:34

The Pat McManus Band - Full Service Resumed

Жанр: Rock, Blues Rock
Год выпуска: 2020
Носитель: CD
Производитель диска: Rock House Music - RHMCD009
Аудиокодек: FLAC
Тип рипа: Tracks+.CUE
Битрейт аудио: lossless
Продолжительность: 00:47:21


Треклист:
01. Doomsday Clock (4:11)
02. Long Haul Trucker (3:52)
03. Bury Me (3:59)
04. Waiting For A Friend (4:22)
05. Rock You (4:01)
06. Jumpstart My Heart (4:36)
07. Bang Bang (4:01)
08. Honey Tray (3:54)
09. Stone Cold Sober (4:50)
10. Crystal Sky (5:03)
11. His Soul Remails With Me (4:33)

X Lossless Decoder version 20201123 (153.0) 

XLD extraction logfile from 2021-01-08 13:30:01 +0100

The Pat McManus Band / Full Service Resumed

Used drive : Apple SuperDrive (revision 2.03)
Media type : Pressed CD

Ripper mode : XLD Secure Ripper
Disable audio cache : OK for the drive with a cache less than 1375KiB
Make use of C2 pointers : NO
Read offset correction : 6
Max retry count : 100
Gap status : Analyzed, Appended (except HTOA)

TOC of the extracted CD
Track | Start | Length | Start sector | End sector
---------------------------------------------------------
1 | 00:00:00 | 04:10:56 | 0 | 18805
2 | 04:10:56 | 03:52:10 | 18806 | 36215
3 | 08:02:66 | 03:58:70 | 36216 | 54135
4 | 12:01:61 | 04:21:42 | 54136 | 73752
5 | 16:23:28 | 04:00:63 | 73753 | 91815
6 | 20:24:16 | 04:36:22 | 91816 | 112537
7 | 25:00:38 | 04:00:65 | 112538 | 130602
8 | 29:01:28 | 03:54:30 | 130603 | 148182
9 | 32:55:58 | 04:49:41 | 148183 | 169898
10 | 37:45:24 | 05:02:74 | 169899 | 192622
11 | 42:48:23 | 04:32:49 | 192623 | 213071

AccurateRip Summary
Disc not found in AccurateRip DB.

All Tracks
Album gain : -10.99 dB
Peak : 0.999969
Statistics
Read error : 0
Jitter error (maybe fixed) : 0
Retry sector count : 0
Damaged sector count : 0

Track 01
Filename : /Users/moiz/Downloads/ The Pat McManus Band - Full Service Resumed (2020) [FLAC]/01 Doomsday Clock.flac
Pre-gap length : 00:02:00

Track gain : -12.59 dB
Peak : 0.999969
CRC32 hash (test run) : 13099187
CRC32 hash : 13099187
CRC32 hash (skip zero) : F0A3E4DC
AccurateRip v1 signature : D6DE5CF5
AccurateRip v2 signature : A804D17B
->Track not present in AccurateRip database.
Statistics
Read error : 0
Jitter error (maybe fixed) : 0
Retry sector count : 0
Damaged sector count : 0

Track 02
Filename : /Users/moiz/Downloads/ The Pat McManus Band - Full Service Resumed (2020) [FLAC]/02 Long Haul Trucker.flac

Track gain : -11.55 dB
Peak : 0.999969
CRC32 hash (test run) : 5E52305B
CRC32 hash : 5E52305B
CRC32 hash (skip zero) : 0D955E70
AccurateRip v1 signature : 40946FC2
AccurateRip v2 signature : 6DE78E74
->Track not present in AccurateRip database.
Statistics
Read error : 0
Jitter error (maybe fixed) : 0
Retry sector count : 0
Damaged sector count : 0

Track 03
Filename : /Users/moiz/Downloads/ The Pat McManus Band - Full Service Resumed (2020) [FLAC]/03 Bury Me.flac

Track gain : -11.38 dB
Peak : 0.999969
CRC32 hash (test run) : F723336C
CRC32 hash : F723336C
CRC32 hash (skip zero) : 42164EC8
AccurateRip v1 signature : C429A5A8
AccurateRip v2 signature : 4F6DDE3F
->Track not present in AccurateRip database.
Statistics
Read error : 0
Jitter error (maybe fixed) : 0
Retry sector count : 0
Damaged sector count : 0

Track 04
Filename : /Users/moiz/Downloads/ The Pat McManus Band - Full Service Resumed (2020) [FLAC]/04 Waiting For A Friend.flac

Track gain : -8.39 dB
Peak : 0.891266
CRC32 hash (test run) : 0B844507
CRC32 hash : 0B844507
CRC32 hash (skip zero) : 55BE69AB
AccurateRip v1 signature : E09D0571
AccurateRip v2 signature : 929E7D05
->Track not present in AccurateRip database.
Statistics
Read error : 0
Jitter error (maybe fixed) : 0
Retry sector count : 0
Damaged sector count : 0

Track 05
Filename : /Users/moiz/Downloads/ The Pat McManus Band - Full Service Resumed (2020) [FLAC]/05 Rock You.flac

Track gain : -11.89 dB
Peak : 0.999969
CRC32 hash (test run) : 26EF3594
CRC32 hash : 26EF3594
CRC32 hash (skip zero) : 79801205
AccurateRip v1 signature : 1BBA530D
AccurateRip v2 signature : 1E4E9C57
->Track not present in AccurateRip database.
Statistics
Read error : 0
Jitter error (maybe fixed) : 0
Retry sector count : 0
Damaged sector count : 0

Track 06
Filename : /Users/moiz/Downloads/ The Pat McManus Band - Full Service Resumed (2020) [FLAC]/06 Jumpstart My Heart.flac

Track gain : -11.55 dB
Peak : 0.999969
CRC32 hash (test run) : F821C350
CRC32 hash : F821C350
CRC32 hash (skip zero) : 5679FA36
AccurateRip v1 signature : FDD82B20
AccurateRip v2 signature : 861FCAF3
->Track not present in AccurateRip database.
Statistics
Read error : 0
Jitter error (maybe fixed) : 0
Retry sector count : 0
Damaged sector count : 0

Track 07
Filename : /Users/moiz/Downloads/ The Pat McManus Band - Full Service Resumed (2020) [FLAC]/07 Bang Bang.flac

Track gain : -10.93 dB
Peak : 0.999969
CRC32 hash (test run) : 952A660F
CRC32 hash : 952A660F
CRC32 hash (skip zero) : A8A9DE7F
AccurateRip v1 signature : A78C553E
AccurateRip v2 signature : 88B676CE
->Track not present in AccurateRip database.
Statistics
Read error : 0
Jitter error (maybe fixed) : 0
Retry sector count : 0
Damaged sector count : 0

Track 08
Filename : /Users/moiz/Downloads/ The Pat McManus Band - Full Service Resumed (2020) [FLAC]/08 Honey Tray.flac

Track gain : -11.48 dB
Peak : 0.999969
CRC32 hash (test run) : F1F22E64
CRC32 hash : F1F22E64
CRC32 hash (skip zero) : 5DF94E81
AccurateRip v1 signature : C5076629
AccurateRip v2 signature : 38569C1E
->Track not present in AccurateRip database.
Statistics
Read error : 0
Jitter error (maybe fixed) : 0
Retry sector count : 0
Damaged sector count : 0

Track 09
Filename : /Users/moiz/Downloads/ The Pat McManus Band - Full Service Resumed (2020) [FLAC]/09 Stone Cold Sober.flac

Track gain : -9.82 dB
Peak : 0.891266
CRC32 hash (test run) : A7F13639
CRC32 hash : A7F13639
CRC32 hash (skip zero) : 9C6DAAAA
AccurateRip v1 signature : AB56C752
AccurateRip v2 signature : 50C0C425
->Track not present in AccurateRip database.
Statistics
Read error : 0
Jitter error (maybe fixed) : 0
Retry sector count : 0
Damaged sector count : 0

Track 10
Filename : /Users/moiz/Downloads/ The Pat McManus Band - Full Service Resumed (2020) [FLAC]/10 Crystal Sky.flac

Track gain : -11.30 dB
Peak : 0.999969
CRC32 hash (test run) : DDCF1B62
CRC32 hash : DDCF1B62
CRC32 hash (skip zero) : B46F10E3
AccurateRip v1 signature : 7CCD1292
AccurateRip v2 signature : 0EFFB556
->Track not present in AccurateRip database.
Statistics
Read error : 0
Jitter error (maybe fixed) : 0
Retry sector count : 0
Damaged sector count : 0

Track 11
Filename : /Users/moiz/Downloads/ The Pat McManus Band - Full Service Resumed (2020) [FLAC]/11 His Soul Remails With Me.flac

Track gain : -8.07 dB
Peak : 0.967957
CRC32 hash (test run) : 107C2335
CRC32 hash : 107C2335
CRC32 hash (skip zero) : 2E22267F
AccurateRip v1 signature : 939BD3F1
AccurateRip v2 signature : 51100120
->Track not present in AccurateRip database.
Statistics
Read error : 0
Jitter error (maybe fixed) : 0
Retry sector count : 0
Damaged sector count : 0

No errors occurred

End of status report

-----BEGIN XLD SIGNATURE-----
W8elnkjuGhJX8kH9Ot7aVGs0XcM7mTxtC8eNy_L1vGpFGt3vDHLj8Fqn_bBTOT4v0JXyzrlADvPw.dLvDsNIWaGt2bz7pGRCVjTPsMO
-----END XLD SIGNATURE-----
TITLE " Full Service Resumed" 
PERFORMER " The Pat McManus Band"
REM GENRE "Rock"
REM DATE "2020"
REM DISCNUMBER 1
REM TOTALDISCS 1
REM DISCID 960B180B
REM REPLAYGAIN_ALBUM_GAIN -10.99 dB
REM REPLAYGAIN_ALBUM_PEAK 0.999969
FILE "01 Doomsday Clock.flac" WAVE
TRACK 01 AUDIO
TITLE "Doomsday Clock"
PERFORMER "The Pat McManus Band"
ISRC UK4WM1500050
REM REPLAYGAIN_TRACK_GAIN -12.59 dB
REM REPLAYGAIN_TRACK_PEAK 0.999969
INDEX 01 00:00:00
FILE "02 Long Haul Trucker.flac" WAVE
TRACK 02 AUDIO
TITLE "Long Haul Trucker"
PERFORMER "The Pat McManus Band"
ISRC UK4WM1500051
REM REPLAYGAIN_TRACK_GAIN -11.55 dB
REM REPLAYGAIN_TRACK_PEAK 0.999969
INDEX 01 00:00:00
FILE "03 Bury Me.flac" WAVE
TRACK 03 AUDIO
TITLE "Bury Me"
PERFORMER "The Pat McManus Band"
ISRC UK4WM1500052
REM REPLAYGAIN_TRACK_GAIN -11.38 dB
REM REPLAYGAIN_TRACK_PEAK 0.999969
INDEX 01 00:00:00
FILE "04 Waiting For A Friend.flac" WAVE
TRACK 04 AUDIO
TITLE "Waiting For A Friend"
PERFORMER "The Pat McManus Band"
ISRC UK4WM1500053
REM REPLAYGAIN_TRACK_GAIN -8.39 dB
REM REPLAYGAIN_TRACK_PEAK 0.891266
INDEX 01 00:00:00
FILE "05 Rock You.flac" WAVE
TRACK 05 AUDIO
TITLE "Rock You"
PERFORMER "The Pat McManus Band"
ISRC UK4WM1500054
REM REPLAYGAIN_TRACK_GAIN -11.89 dB
REM REPLAYGAIN_TRACK_PEAK 0.999969
INDEX 01 00:00:00
FILE "06 Jumpstart My Heart.flac" WAVE
TRACK 06 AUDIO
TITLE "Jumpstart My Heart"
PERFORMER "The Pat McManus Band"
ISRC UK4WM1500055
REM REPLAYGAIN_TRACK_GAIN -11.55 dB
REM REPLAYGAIN_TRACK_PEAK 0.999969
INDEX 01 00:00:00
FILE "07 Bang Bang.flac" WAVE
TRACK 07 AUDIO
TITLE "Bang Bang"
PERFORMER "The Pat McManus Band"
ISRC UK4WM1500056
REM REPLAYGAIN_TRACK_GAIN -10.93 dB
REM REPLAYGAIN_TRACK_PEAK 0.999969
INDEX 01 00:00:00
FILE "08 Honey Tray.flac" WAVE
TRACK 08 AUDIO
TITLE "Honey Tray"
PERFORMER "The Pat McManus Band"
ISRC UK4WM1500057
REM REPLAYGAIN_TRACK_GAIN -11.48 dB
REM REPLAYGAIN_TRACK_PEAK 0.999969
INDEX 01 00:00:00
FILE "09 Stone Cold Sober.flac" WAVE
TRACK 09 AUDIO
TITLE "Stone Cold Sober"
PERFORMER "The Pat McManus Band"
ISRC UK4WM1500058
REM REPLAYGAIN_TRACK_GAIN -9.82 dB
REM REPLAYGAIN_TRACK_PEAK 0.891266
INDEX 01 00:00:00
FILE "10 Crystal Sky.flac" WAVE
TRACK 10 AUDIO
TITLE "Crystal Sky"
PERFORMER "The Pat McManus Band"
ISRC UK4WM1500059
REM REPLAYGAIN_TRACK_GAIN -11.30 dB
REM REPLAYGAIN_TRACK_PEAK 0.999969
INDEX 01 00:00:00
FILE "11 His Soul Remails With Me.flac" WAVE
TRACK 11 AUDIO
TITLE "His Soul Remails With Me"
PERFORMER "The Pat McManus Band"
ISRC UK4WM1500060
REM REPLAYGAIN_TRACK_GAIN -8.07 dB
REM REPLAYGAIN_TRACK_PEAK 0.967957
INDEX 01 00:00:00

Этот торрент недоступен для скачивания без регистрации, однако доступен по публичной magnet-ссылке (источники с публичных трекеров). Перед использованием ссылки прочтите, пожалуйста Пользовательское соглашение, а также как можно дольше оставайтесь на раздаче! Для того, чтобы скачать сам торрент-файл (который видит больше источников), а также для того, чтобы поблагодарить релизера, вам необходимо зарегистрироваться. Если регистрироваться лень - вы можете также попробовать скачать релиз по нашим партнерским ссылкам ниже. Кроме того, зарегистрированным пользователям не показывается всплывающая реклама при скачивании.

[underver.se].t200556.torrent
Трекер: Зарегистрирован   [ 25.02.2021 08:34 ]  

Статус: проверено (by Бишеп at 25.02.2021 08:34)
Поблагодарили: пока никто не поблагодарил...
Тип торрента: публичный - доступные источники с открытых трекеров: 
Размер: 339 MB (занимает 0,08 DVDR, для записи нужно 1 болванка DVDR/RW)
 
 
Похожие темы
Форум Тема Автор Торрент Отв. Посл. сооб.
Зарубежный Hard, Progressive, Soft, Melodic, AOR, Folk, Classic Rock (Rock, Blues, Psychedelic Rock) Porno Wolves - Renegades (2017) [MP3, 320 kbps CBR] Darkferse
0 | 0

0 | 1641

3

30.08.2017 17:39

Зарубежный Hard, Progressive, Soft, Melodic, AOR, Folk, Classic Rock (Rock, Blues, Funk) Jim Shaneberger Band - Above And Below (2017) [MP3, 320 kbps CBR] Darkferse
1 | 0

0 | 832

2

01.01.2018 15:37

Зарубежный Hard, Progressive, Soft, Melodic, AOR, Folk, Classic Rock (Rock, Blues) Eric Johnson - Collage (2017) [MP3, 320 kbps CBR] Darkferse
0 | 0

0 | 1667

5

04.01.2018 00:55

Зарубежный Hard, Progressive, Soft, Melodic, AOR, Folk, Classic Rock (Rock, Blues) Beth Hart - Fire On The Floor (2016) [MP3, 320 kbps CBR] 90ytr90
0 | 0

0 | 731

4

10.11.2018 18:34

Зарубежный Hard, Progressive, Soft, Melodic, AOR, Folk, Classic Rock (Rock, Blues) Beth Hart - Front And Center [Live From New York] (2018) [MP3, 320 kbps CBR] 90ytr90
1 | 0

0 | 1031

5

10.11.2018 21:20

Зарубежный Hard, Progressive, Soft, Melodic, AOR, Folk, Classic Rock (Rock, Blues Rock) Beth Hart - Better Than Home [Deluxe Edition] (2015) [MP3, 320 kbps CBR] 90ytr90
1 | 0

0 | 784

4

25.11.2018 12:53

Зарубежный Hard, Progressive, Soft, Melodic, AOR, Folk, Classic Rock (Rock, Blues) Beth Hart - Live At The Royal Albert Hall (2018) [MP3, 320 kbps CBR] 90ytr90
0 | 0

0 | 779

6

06.12.2018 17:49

Зарубежный Hard, Progressive, Soft, Melodic, AOR, Folk, Classic Rock (Rock, Blues) Running Cooper - Are We Having Fun Yet? (2018) [MP3, 320 kbps CBR] 90ytr90
0 | 1

0 | 825

3

23.12.2018 17:01

Зарубежный Hard, Progressive, Soft, Melodic, AOR, Folk, Classic Rock (Rock, Blues Rock, Folk Rock) John Illsley - Coming Up For Air (2019) [MP3, 320 kbps CBR] valera87
1 | 0

0 | 1905

11

28.11.2019 18:50

Зарубежный Hard, Progressive, Soft, Melodic, AOR, Folk, Classic Rock (Rock, Blues Rock, Hard Rock) Gary Moore - Parisienne Walkways: The Collection (2CD) (2020) [MP3, 320 kbps CBR] 90ytr90
2 | 0

0 | 798

15

20.01.2020 15:23


Яндекс.Метрика powered by Sphinx


В Н И М А Н И Е
Сайт не распространяет и не хранит электронные версии произведений, а лишь бесплатно и без коммерческой выгоды (не требуя взамен платы,
SMS и т.д.) предоставляет доступ к создаваемому пользователями каталогу ссылок на торрент-файлы, которые содержат только списки хеш-сумм.
Убедительная просьба с жалобами обращаться напрямую к пользователю, разместившему торрент файл.

Вверх