Loading...
Error

Крошка Шива / Shiva Baby (Эмма Селигман / Emma Seligman) [2020 г., комедия, WEB-DL 1080p] DVO (Pazl Voice) + Original + Sub

Статистика раздачи
Размер:  5,43 GB   |    Зарегистрирован:  7 дней   |    Скачан:  3 раза

Полного источника не было: 7 часов

Сидов:  0  |  0 KB/s  ]   Личеров:  0  |  0 KB/s  ]

* - сиды/пиры с внешних источников

   
 
Автор Сообщение

90ytr90 

08-Апр-2021 03:30

Крошка Шива / Shiva Baby


Год выхода: 2020
Страна: США, Канада
Студия: Neon Heart Productions
Жанр: комедия
Продолжительность: 01:17:25
Перевод: Любительский (двухголосый, закадровый) Pazl Voice

Режиссёр: Эмма Селигман
Актеры фильма: Рэйчел Сеннотт, Молли Гордон, Полли Дрэйпер, Дэнни Деферрари, Фред Меламед, Дианна Агрон, Джеки Хоффман, Сондра Джеймс, Дебора Оффнер, Вивьен Ландау

Описание: Главная героиня - молодая девушка, которая попадает в очень странную и загадочную ситуацию. Вместе с родителями она приходит на траурную церемонию, где встречает своего любовника и бывшую девушку. С этого момента героиня начинает запутываться в разных версиях самой себя. Сможет ли она разобраться во всем этом. Кем героиня является на самом деле, и какой путь ей предстоит выбрать?...



Релиз от: KinoPub | Без рекламы!
Качество: WEB-DL 1080p | Shiva.Baby.2020.1080p.AMZN.WEB-DL.DDP5.1.H.264
Видео: MPEG-4 AVC, 8948 Кбит/с, 1920x1080
Звук 1: AC3, 6 ch, 448 Кбит/с | RUS
Звук 2: E-AC-3, 6 ch, 640 Кбит/с | ENG
Субтитры: Английские (SDH)
удаление рекламы: JNS82
Общее
Уникальный идентификатор : 252371188490610083218576090482405354317 (0xBDDCEC43453E74DAEE1D99743D492B4D)
Полное имя : C:\DownloadsКрошка.Шива_2020_WEB-DL_1080p_From_KinoPub.mkv
Формат : Matroska
Версия формата : Version 4
Размер файла : 5,43 Гбайт
Продолжительность : 1 ч. 17 м.
Общий поток : 10,0 Мбит/сек
Название фильма : Крошка.Шива_2020_WEB-DL_1080p_From_KinoPub
Дата кодирования : UTC 2021-04-07 09:04:54
Программа кодирования : mkvmerge v53.0.0 ('Fool's Gold') 64-bit
Библиотека кодирования : libebml v1.4.1 + libmatroska v1.6.2

Видео
Идентификатор : 1
Формат : AVC
Формат/Информация : Advanced Video Codec
Профиль формата : High@L4
Настройки формата : CABAC / 4 Ref Frames
Параметр CABAC формата : Да
Параметр RefFrames формата : 4 кадра
Идентификатор кодека : V_MPEG4/ISO/AVC
Продолжительность : 1 ч. 17 м.
Вид битрейта : Постоянный
Битрейт : 8 948 Кбит/сек
Номинальный битрейт : 10 000 Кбит/сек
Ширина : 1 920 пикселей
Высота : 1 080 пикселей
Соотношение сторон : 16:9
Режим частоты кадров : Постоянный
Частота кадров : 23,976 (24000/1001) кадра/сек
Цветовое пространство : YUV
Субдискретизация насыщенности : 4:2:0
Битовая глубина : 8 бит
Тип развёртки : Прогрессивная
Бит/(Пиксели*Кадры) : 0.180
Размер потока : 4,84 Гбайт (89%)
Default : Да
Forced : Нет
Цветовой диапазон : Limited
Основные цвета : BT.709
Характеристики трансфера : BT.709
Коэффициенты матрицы : BT.709

Аудио #1
Идентификатор : 2
Формат : AC-3
Формат/Информация : Audio Coding 3
Коммерческое название : Dolby Digital
Идентификатор кодека : A_AC3
Продолжительность : 1 ч. 17 м.
Вид битрейта : Постоянный
Битрейт : 448 Кбит/сек
Каналы : 6 каналов
Channel layout : L R C LFE Ls Rs
Частота : 48,0 КГц
Частота кадров : 31,250 кадров/сек (1536 SPF)
Метод сжатия : С потерями
Размер потока : 248 Мбайт (4%)
Заголовок : Pazl Voice | KinoPub
Язык : Russian
Service kind : Complete Main
Default : Да
Forced : Нет

Аудио #2
Идентификатор : 3
Формат : E-AC-3
Формат/Информация : Enhanced AC-3
Коммерческое название : Dolby Digital Plus
Идентификатор кодека : A_EAC3
Продолжительность : 1 ч. 17 м.
Вид битрейта : Постоянный
Битрейт : 640 Кбит/сек
Каналы : 6 каналов
Channel layout : L R C LFE Ls Rs
Частота : 48,0 КГц
Частота кадров : 31,250 кадров/сек (1536 SPF)
Метод сжатия : С потерями
Размер потока : 354 Мбайт (6%)
Язык : English
Service kind : Complete Main
Default : Нет
Forced : Нет

Текст
Идентификатор : 4
Формат : UTF-8
Идентификатор кодека : S_TEXT/UTF8
Идентификатор кодека/Информация : UTF-8 Plain Text
Продолжительность : 1 ч. 12 м.
Битрейт : 86 бит/сек
Count of elements : 1537
Размер потока : 45,7 Кбайт (0%)
Заголовок : SDH
Язык : English
Default : Нет
Forced : Нет

Этот торрент недоступен для скачивания без регистрации, однако доступен по публичной magnet-ссылке (источники с публичных трекеров). Перед использованием ссылки прочтите, пожалуйста Пользовательское соглашение, а также как можно дольше оставайтесь на раздаче! Для того, чтобы скачать сам торрент-файл (который видит больше источников), а также для того, чтобы поблагодарить релизера, вам необходимо зарегистрироваться. Если регистрироваться лень - вы можете также попробовать скачать релиз по нашим партнерским ссылкам ниже. Кроме того, зарегистрированным пользователям не показывается всплывающая реклама при скачивании.

[underver.se].t203965.torrent
Трекер: Зарегистрирован   [ 08.04.2021 03:30 ]  

Статус: * не проверено
Поблагодарили: пока никто не поблагодарил...
Тип торрента: публичный - доступные источники с открытых трекеров: 
Размер: 5,43 GB (занимает 1,24 DVDR, для записи нужно 2 болванки DVDR/RW)
 
 
Похожие темы
Форум Тема Автор Торрент Отв. Посл. сооб.
Зарубежное кино [DVDRip, Low-Res HDRip, и т.д.] Крошка Шива / Shiva Baby (Эмма Селигман) [2020 г., комедия, WEB-DLRip-AVC] 2 x DVO + Sub (Eng) Renesans
14 | 4

1 | 229

1

07.04.2021 13:29

Зарубежное кино [DVDRip, Low-Res HDRip, и т.д.] Крошка Шива / Shiva Baby (Эмма Селигман) [2020 г., комедия, WEB-DLRip] DVO + Original (Eng) Renesans
33 | 4

1 | 272

7

07.04.2021 13:37


Яндекс.Метрика powered by Sphinx


В Н И М А Н И Е
Сайт не распространяет и не хранит электронные версии произведений, а лишь бесплатно и без коммерческой выгоды (не требуя взамен платы,
SMS и т.д.) предоставляет доступ к создаваемому пользователями каталогу ссылок на торрент-файлы, которые содержат только списки хеш-сумм.
Убедительная просьба с жалобами обращаться напрямую к пользователю, разместившему торрент файл.

Вверх