Loading...
Error

Мадам Клод / Madame Claude (Сильви Веред) [2021 г., драма, мелодрама, криминал, биография, WEB-DL 1080p] DVO (Pazl Voice) + Original + Sub

Статистика раздачи
Размер:  2,63 GB   |    Зарегистрирован:  7 дней   |    Скачан:  6 раз
Сидов:  1  |  0 KB/s  ]   Личеров:  0  |  0 KB/s  ]

* - сиды/пиры с внешних источников

   
 
Автор Сообщение

90ytr90 

08-Апр-2021 03:33

Мадам Клод / Madame Claude


Год выхода: 2021
Страна: Франция
Студия: Cine+, La Region Ile-de-France, Les Compagnons du Cinema
Жанр: Драма, мелодрама, криминал, биография
Продолжительность: 01:52:50
Перевод: Любительский (двухголосый, закадровый) | Pazl Voice

Режиссёр: Сильви Веред
В фильме снимались: Кароль Роше, Рошди Зем, Геранс Марилье, Пьер Деладоншам, Аннабель Бельмондо, Афсиа Эрзи, Жозефин де ля Бом, Милен Джампаной, Люсиль Желан, Лиа О'Прей

Описание: Действия фильма происходят в конце шестидесятых годов прошлого столетия в Париже. Мадам Клод является известной личностью в определенных кругах. Это не удивительно, поскольку она возглавляет процветающий бизнес, связанный с проституцией. Хитрая и расчетливая женщина имеет огромное влияние на политиков и криминальных авторитетов, поскольку знает о тайнах многих представителей этих сфер. Она мастерски пользуется положением, только укрепляя свои позиции. Но героиня даже не подозревает, что конец ее империи намного ближе, чем может казаться...



Релиз от: KinoPub | Без рекламы!
Качество: WEB-DL 1080p | Madame.Claude.2021.1080p.NF.WEB-DL.DDP5.1.x264
Видео: MPEG-4 AVC, 2252 Кбит/с, 1920x1080
Звук 1: AC3, 6 ch, 448 Кбит/с | RUS
Звук 2: E-AC-3, 6 ch, 640 Кбит/с | FRA
Субтитры: Русские, (английские (SDH))
удаление рекламы: JNS82
Общее
Уникальный идентификатор : 232225763016012919157241275290825350979 (0xAEB50E1A0E23CE5844DBEE81E76D5F43)
Полное имя : C:\DownloadsMadame Claude_2021_WEB-DL_1080p_From_KinoPub.mkv
Формат : Matroska
Версия формата : Version 4
Размер файла : 2,63 Гбайт
Продолжительность : 1 ч. 52 м.
Режим общего битрейта : Переменный
Общий поток : 3 342 Кбит/сек
Название фильма : Madame Claude_2021_WEB-DL_1080p_From_KinoPub
Дата кодирования : UTC 2021-04-07 10:31:54
Программа кодирования : mkvmerge v53.0.0 ('Fool's Gold') 64-bit
Библиотека кодирования : libebml v1.4.1 + libmatroska v1.6.2

Видео
Идентификатор : 1
Формат : AVC
Формат/Информация : Advanced Video Codec
Профиль формата : Main@L4
Настройки формата : CABAC / 3 Ref Frames
Параметр CABAC формата : Да
Параметр RefFrames формата : 3 кадра
Идентификатор кодека : V_MPEG4/ISO/AVC
Продолжительность : 1 ч. 52 м.
Вид битрейта : Переменный
Битрейт : 2 252 Кбит/сек
Номинальный битрейт : 1 682 Кбит/сек
Максимальный битрейт : 4 110 Кбит/сек
Ширина : 1 920 пикселей
Высота : 1 080 пикселей
Соотношение сторон : 16:9
Режим частоты кадров : Постоянный
Частота кадров : 24,000 кадра/сек
Цветовое пространство : YUV
Субдискретизация насыщенности : 4:2:0
Битовая глубина : 8 бит
Тип развёртки : Прогрессивная
Бит/(Пиксели*Кадры) : 0.045
Размер потока : 1,78 Гбайт (67%)
Библиотека кодирования : x264 core 148 r2722 1b0121b
Настройки программы : cabac=1 / ref=3 / deblock=1:0:0 / analyse=0x1:0x111 / me=umh / subme=10 / psy=1 / psy_rd=1.00:0.00 / mixed_ref=1 / me_range=24 / chroma_me=1 / trellis=2 / 8x8dct=0 / cqm=0 / deadzone=21,11 / fast_pskip=1 / chroma_qp_offset=-2 / threads=6 / lookahead_threads=1 / sliced_threads=0 / nr=0 / decimate=1 / interlaced=0 / bluray_compat=0 / stitchable=1 / constrained_intra=0 / bframes=2 / b_pyramid=0 / b_adapt=2 / b_bias=0 / direct=3 / weightb=1 / open_gop=0 / weightp=2 / keyint=250 / keyint_min=24 / scenecut=0 / intra_refresh=0 / rc_lookahead=48 / rc=2pass / mbtree=1 / bitrate=1682 / ratetol=1.0 / qcomp=0.50 / qpmin=6 / qpmax=51 / qpstep=4 / cplxblur=20.0 / qblur=0.5 / vbv_maxrate=4110 / vbv_bufsize=5480 / nal_hrd=vbr / filler=0 / ip_ratio=1.40 / aq=1:1.00
Default : Да
Forced : Нет

Аудио #1
Идентификатор : 2
Формат : AC-3
Формат/Информация : Audio Coding 3
Коммерческое название : Dolby Digital
Идентификатор кодека : A_AC3
Продолжительность : 1 ч. 52 м.
Вид битрейта : Постоянный
Битрейт : 448 Кбит/сек
Каналы : 6 каналов
Channel layout : L R C LFE Ls Rs
Частота : 48,0 КГц
Частота кадров : 31,250 кадров/сек (1536 SPF)
Метод сжатия : С потерями
Размер потока : 362 Мбайт (13%)
Заголовок : Pazl Voice | KinoPub
Язык : Russian
Service kind : Complete Main
Default : Да
Forced : Нет

Аудио #2
Идентификатор : 3
Формат : E-AC-3
Формат/Информация : Enhanced AC-3
Коммерческое название : Dolby Digital Plus
Идентификатор кодека : A_EAC3
Продолжительность : 1 ч. 52 м.
Вид битрейта : Постоянный
Битрейт : 640 Кбит/сек
Каналы : 6 каналов
Channel layout : L R C LFE Ls Rs
Частота : 48,0 КГц
Частота кадров : 31,250 кадров/сек (1536 SPF)
Метод сжатия : С потерями
Размер потока : 517 Мбайт (19%)
Заголовок : French
Язык : French
Service kind : Complete Main
Default : Нет
Forced : Нет

Текст #1
Идентификатор : 4
Формат : UTF-8
Идентификатор кодека : S_TEXT/UTF8
Идентификатор кодека/Информация : UTF-8 Plain Text
Продолжительность : 1 ч. 51 м.
Битрейт : 64 бит/сек
Count of elements : 1133
Размер потока : 53,0 Кбайт (0%)
Заголовок : Russian
Язык : Russian
Default : Нет
Forced : Нет

Текст #2
Идентификатор : 5
Формат : UTF-8
Идентификатор кодека : S_TEXT/UTF8
Идентификатор кодека/Информация : UTF-8 Plain Text
Продолжительность : 1 ч. 51 м.
Битрейт : 56 бит/сек
Count of elements : 1406
Размер потока : 46,3 Кбайт (0%)
Заголовок : British English [SDH]
Язык : English
Default : Нет
Forced : Нет

Этот торрент недоступен для скачивания без регистрации, однако доступен по публичной magnet-ссылке (источники с публичных трекеров). Перед использованием ссылки прочтите, пожалуйста Пользовательское соглашение, а также как можно дольше оставайтесь на раздаче! Для того, чтобы скачать сам торрент-файл (который видит больше источников), а также для того, чтобы поблагодарить релизера, вам необходимо зарегистрироваться. Если регистрироваться лень - вы можете также попробовать скачать релиз по нашим партнерским ссылкам ниже. Кроме того, зарегистрированным пользователям не показывается всплывающая реклама при скачивании.

[underver.se].t203966.torrent
Трекер: Зарегистрирован   [ 08.04.2021 03:33 ]  

Статус: * не проверено
Поблагодарили: пока никто не поблагодарил...
Тип торрента: публичный - доступные источники с открытых трекеров: 
Размер: 2,63 GB (занимает 0,6 DVDR, для записи нужно 1 болванка DVDR/RW)
 
 
Похожие темы
Форум Тема Автор Торрент Отв. Посл. сооб.
T Зарубежное кино [DVDRip, Low-Res HDRip, и т.д.] Мадам Клод / Madame Claude (Сильви Веред) [2021 г., драма, мелодрама, криминал, биография, WEB-DLRip] DVO (@MUZOBOZ@) makkol
3 | 0

0 | 279

11

04.04.2021 09:27


Яндекс.Метрика powered by Sphinx


В Н И М А Н И Е
Сайт не распространяет и не хранит электронные версии произведений, а лишь бесплатно и без коммерческой выгоды (не требуя взамен платы,
SMS и т.д.) предоставляет доступ к создаваемому пользователями каталогу ссылок на торрент-файлы, которые содержат только списки хеш-сумм.
Убедительная просьба с жалобами обращаться напрямую к пользователю, разместившему торрент файл.

Вверх