Loading...
Error

Охотник на монстров / Monster Hunter (Пол У. С. Андерсон / Paul W.S. Anderson) [2020 г., фэнтези, боевик, приключения, BDRip-AVC] Dub + Sub (Rus)

Статистика раздачи
Размер:  1,5 GB   |    Зарегистрирован:  7 дней   |    Скачан:  3 раза

Полного источника не было: 2 дня 8 часов

Сидов:  0  |  0 KB/s  ]   Личеров:  0  |  0 KB/s  ]

* - сиды/пиры с внешних источников

   
 
Автор Сообщение

90ytr90 

08-Апр-2021 03:37

Охотник на монстров / Monster Hunter


Страна: США, Китай, Германия, Япония
Год выпуска: 2020
Жанр: фэнтези, боевик, приключения
Продолжительность: 01:43:08
Озвучивание: профессиональное (полное дублирование) [лицензия]
Режиссёр: Пол У. С. Андерсон / Paul W.S. Anderson

В ролях:
    Милла Йовович, Тони Джа, Ти Ай, Мэган Гуд, Диего Бонета, Джош Хелман, Джин О-Юн, Рон Перлман, Янник Шуманн, Хирона Ямадзаки


Сюжет фильма:
    Параллельно нашему миру существует иной: мир, где правят крайне опасные и наделенные невероятной силой монстры, яростно оберегающие свои владения от чужаков. Именно сюда через пространственный портал попадают лейтенант Артемис и ее отряд элитных бойцов. И теперь им предстоит проверить себя на прочность перед лицом невиданной ранее угрозы. В попытке выжить и найти дорогу домой, Артемис объединяет силы с таинственным Охотником, который научился выживать в этих враждебных землях. Вместе героям предстоит вступить в беспощадную схватку с монстрами, не знающими страха и жалости.

  • Дата мировой премьеры: 3 декабря 2020
  • Дата российской премьеры: 28 января 2021, «СППР»
             
Качество видео: BDRip-AVC
Формат: MKV
Видео: AVC, 726x304 (2.40:1), 1629 kbps, 23.976 (24000/1001) fps, 0.308 bit/pixel
Аудио: AC3, 448 kbps, 6 ch, 48 kHz, Dub [лицензия]
Субтитры: Russian (forced, full, full.Enigma, full.Focs)
Навигация по главам: есть (17)

Rip by -=DoMiNo=-
x264 [info]: frame I:1667  Avg QP:14.04  size: 38916 
x264 [info]: frame P:39674 Avg QP:15.81 size: 15073
x264 [info]: frame B:107028 Avg QP:18.04 size: 5578
x264 [info]: consecutive B-frames: 4.8% 5.4% 11.4% 39.8% 14.6% 15.6% 3.7% 3.1% 0.7% 0.7% 0.2%

General
Format : Matroska
Format version : Version 4
File size : 1.50 GiB
Duration : 1 h 43 min
Overall bit rate : 2 079 kb/s
Movie name : Охотник на монстров.(2020).BDRip-AVC.[-=DoMiNo=-]
Encoded date : UTC 2021-04-07 16:43:44
Writing application : mkvmerge v44.0.0 ('Domino') 64-bit
Writing library : libebml v1.3.10 + libmatroska v1.5.2
Cover : Yes
Attachments : Cover.jpg / Cover 2.jpg

Video
ID : 1
Format : AVC
Format/Info : Advanced Video Codec
Format profile : High@L4.1
Format settings : CABAC / 12 Ref Frames
Format settings, CABAC : Yes
Format settings, Reference : 12 frames
Codec ID : V_MPEG4/ISO/AVC
Duration : 1 h 43 min
Bit rate : 1 629 kb/s
Width : 726 pixels
Height : 304 pixels
Display aspect ratio : 2.40:1
Frame rate mode : Constant
Frame rate : 23.976 (24000/1001) FPS
Color space : YUV
Chroma subsampling : 4:2:0
Bit depth : 8 bits
Scan type : Progressive
Bits/(Pixel*Frame) : 0.308
Stream size : 1.17 GiB (78%)
Title : -=DoMiNo=-
Writing library : x264 core 161 r3048 b86ae3c
Encoding settings : cabac=1 / ref=12 / deblock=1:-2:-1 / analyse=0x3:0x133 / me=umh / subme=11 / psy=1 / psy_rd=1.05:0.15 / mixed_ref=1 / me_range=32 / chroma_me=1 / trellis=2 / 8x8dct=1 / cqm=0 / deadzone=21,11 / fast_pskip=0 / chroma_qp_offset=-3 / threads=6 / lookahead_threads=1 / sliced_threads=0 / nr=0 / decimate=0 / interlaced=0 / bluray_compat=0 / constrained_intra=0 / bframes=10 / b_pyramid=2 / b_adapt=2 / b_bias=0 / direct=3 / weightb=1 / open_gop=0 / weightp=2 / keyint=250 / keyint_min=23 / scenecut=40 / intra_refresh=0 / rc_lookahead=60 / rc=2pass / mbtree=0 / bitrate=1629 / ratetol=1.0 / qcomp=0.60 / qpmin=0 / qpmax=69 / qpstep=4 / cplxblur=20.0 / qblur=0.5 / vbv_maxrate=50000 / vbv_bufsize=62500 / nal_hrd=none / filler=0 / ip_ratio=1.25 / pb_ratio=1.30 / aq=3:0.80
Language : English
Default : Yes
Forced : No
Color range : Limited
Color primaries : BT.709
Transfer characteristics : BT.709
Matrix coefficients : BT.709

Audio
ID : 2
Format : AC-3
Format/Info : Audio Coding 3
Commercial name : Dolby Digital
Codec ID : A_AC3
Duration : 1 h 43 min
Bit rate mode : Constant
Bit rate : 448 kb/s
Channel(s) : 6 channels
Channel layout : L R C LFE Ls Rs
Sampling rate : 48.0 kHz
Frame rate : 31.250 FPS (1536 SPF)
Compression mode : Lossy
Stream size : 330 MiB (22%)
Title : DUB_[Blu-ray EUR]
Language : Russian
Service kind : Complete Main
Default : Yes
Forced : No

Text #1
ID : 3
Format : UTF-8
Codec ID : S_TEXT/UTF8
Codec ID/Info : UTF-8 Plain Text
Duration : 1 h 41 min
Bit rate : 0 b/s
Count of elements : 10
Stream size : 536 Bytes (0%)
Title : Forced
Language : Russian
Default : No
Forced : No

Text #2
ID : 4
Format : UTF-8
Codec ID : S_TEXT/UTF8
Codec ID/Info : UTF-8 Plain Text
Duration : 1 h 41 min
Bit rate : 27 b/s
Count of elements : 490
Stream size : 20.3 KiB (0%)
Title : Full
Language : Russian
Default : No
Forced : No

Text #3
ID : 5
Format : UTF-8
Codec ID : S_TEXT/UTF8
Codec ID/Info : UTF-8 Plain Text
Duration : 1 h 32 min
Bit rate : 30 b/s
Count of elements : 521
Stream size : 20.9 KiB (0%)
Title : Full [Enigma]
Language : Russian
Default : No
Forced : No

Text #4
ID : 6
Format : UTF-8
Codec ID : S_TEXT/UTF8
Codec ID/Info : UTF-8 Plain Text
Duration : 1 h 33 min
Bit rate : 29 b/s
Count of elements : 502
Stream size : 20.3 KiB (0%)
Title : Full [FOCS]
Language : Russian
Default : No
Forced : No

Menu
00:00:00.000 : :Chapter 01
00:04:59.424 : :Chapter 02
00:10:28.211 : :Chapter 03
00:15:26.342 : :Chapter 04
00:21:12.938 : :Chapter 05
00:24:53.492 : :Chapter 06
00:31:53.328 : :Chapter 07
00:35:58.698 : :Chapter 08
00:41:10.301 : :Chapter 09
00:48:05.007 : :Chapter 10
00:54:10.080 : :Chapter 11
01:01:36.109 : :Chapter 12
01:06:18.516 : :Chapter 13
01:13:21.689 : :Chapter 14
01:23:01.727 : :Chapter 15
01:31:21.601 : :Chapter 16
01:35:39.734 : :Chapter 17


pic pic pic pic pic pic pic pic pic pic

Этот торрент недоступен для скачивания без регистрации, однако доступен по публичной magnet-ссылке (источники с публичных трекеров). Перед использованием ссылки прочтите, пожалуйста Пользовательское соглашение, а также как можно дольше оставайтесь на раздаче! Для того, чтобы скачать сам торрент-файл (который видит больше источников), а также для того, чтобы поблагодарить релизера, вам необходимо зарегистрироваться. Если регистрироваться лень - вы можете также попробовать скачать релиз по нашим партнерским ссылкам ниже. Кроме того, зарегистрированным пользователям не показывается всплывающая реклама при скачивании.

[underver.se].t203969.torrent
Трекер: Зарегистрирован   [ 08.04.2021 03:37 ]  

Статус: проверено (by 90ytr90 at 09.04.2021 11:50)
Поблагодарили: пока никто не поблагодарил...
Тип торрента: публичный - доступные источники с открытых трекеров: 
Размер: 1,5 GB (занимает 0,34 DVDR, для записи нужно 1 болванка DVDR/RW)
 
 
Похожие темы
Форум Тема Автор Торрент Отв. Посл. сооб.
T Зарубежное кино [DVDRip, Low-Res HDRip, и т.д.] Охотник на лис / Foxcatcher (Беннетт Миллер / Bennett Miller) [2014 г., триллер, драма, биография, спорт, HDRip] Dub (iTunes) 90ytr90
1 | 0

0 | 3362

11

21.02.2015 16:09

T Зарубежное кино [DVDRip, Low-Res HDRip, и т.д.] Охотник на лис / Foxcatcher (Беннетт Миллер / Bennett Miller) [2014 г., триллер, драма, биография, спорт, HDRip] Dub (iTunes) 90ytr90
2 | 0

0 | 3380

12

24.02.2015 18:30

Зарубежное кино [DVDRip, Low-Res HDRip, и т.д.] Охотник на убийц / Suspect Zero (Э. Елиас Мериге / E. Elias Merhige) [2004 г., фантастика, триллер, криминал, HDRip] MVO 90ytr90
10 | 0

0 | 1550

30

08.06.2016 19:53

Зарубежное кино [DVDRip, Low-Res HDRip, и т.д.] Охотник на лис / Foxcatcher (Беннетт Миллер / Bennett Miller) [2014 г., триллер, драма, биография, спорт, BDRip] Dub 90ytr90
3 | 0

0 | 961

4

16.11.2017 09:55

T Зарубежное кино [DVDRip, Low-Res HDRip, и т.д.] Охотник на любовниц / Mistress Hunter (Пенелопа Буйтенхуис) [2018 г., триллер, HDTVRip] MVO (Синема УС) makkol
0 | 1

0 | 1004

6

25.03.2018 10:52

T Зарубежное кино [DVDRip, Low-Res HDRip, и т.д.] Охотник на волков / A Soldiers Creed (Хуан Салас / Juan Salas) [2018 г., боевик, WEBRip] MVO (Синема УС) 90ytr90
0 | 1

0 | 1386

10

28.12.2018 18:12

T Зарубежное кино [DVDRip, Low-Res HDRip, и т.д.] Охотник на ракеты / Rocket Hunter (Кристофер Форбс) [2020 г., боевик, военный, WEB-DLRip] MVO (AlphaProject) makkol
9 | 1

0 | 908

27

24.01.2020 21:07

Зарубежное кино [DVDRip, Low-Res HDRip, и т.д.] Охотник на монстров / Monster Hunter (Пол У. С. Андерсон / Paul W.S. Anderson) [2020 г., фэнтези, боевик, приключения, BDRip] Dub + MVO (HDRezka Studio) + Sub (Rus, Ukr) 90ytr90
25 | 1

0 | 130

3

08.04.2021 03:20

Зарубежное кино [DVDRip, Low-Res HDRip, и т.д.] Охотник на монстров / Monster Hunter (Пол У. С. Андерсон / Paul W.S. Anderson) [2020 г., фэнтези, боевик, приключения, BDRip] Dub + Sub (Rus, Ukr) 90ytr90
111 | 11

0 | 145

9

08.04.2021 03:19

Зарубежное кино [DVDRip, Low-Res HDRip, и т.д.] Охотник на зомби / Zombie Hunter (К. Кинг) [2013 г., ужасы, боевик, комедия, HDRip] MVO (НТВ+) makkol
1 | 0

0 | 378

7

07.11.2020 10:31


Яндекс.Метрика powered by Sphinx


В Н И М А Н И Е
Сайт не распространяет и не хранит электронные версии произведений, а лишь бесплатно и без коммерческой выгоды (не требуя взамен платы,
SMS и т.д.) предоставляет доступ к создаваемому пользователями каталогу ссылок на торрент-файлы, которые содержат только списки хеш-сумм.
Убедительная просьба с жалобами обращаться напрямую к пользователю, разместившему торрент файл.

Вверх