Loading...
Error

Игры шпионов / The Courier (Доминик Кук) [2020 г., триллер, WEB-DLRip] DVO (Pazl Voice)

Статистика раздачи
Размер:  1,46 GB   |    Зарегистрирован:  3 месяца 15 дней   |    Скачан:  44 раза
Сидов:  2  |  0 KB/s  ]   Личеров:  0  |  0 KB/s  ]

* - сиды/пиры с внешних источников

   
 
Автор Сообщение

makkol Пол:Муж

17-Апр-2021 21:47

Игры шпионов / The Courier


Год выпуска: 2020
Жанр: триллер
Производство: Великобритания , США [42, FilmNation Entertainment, SunnyMarch]
Режиссер: Доминик Кук
В ролях: Бенедикт Камбербэтч, Мераб Нинидзе, Рэйчел Броснахэн, Джесси Бакли, Энгус Райт, Джозеф Балдеррама, Кирилл Пирогов, Владимир Чуприков, Мария Миронова, Фред Хейг, Эмма Пензина, Антон Лессер, Петр Климеш, Элис Орр-Юинг, Оливер Джонстон, Джонатан Харден, Ричард Глейвз, Ондржей Малый
Сюжет фильма:
Во время Холодной войны Олег Пеньковский, полковник ГРУ генштаба Минобороны, выходит на связь с Гревиллом Винном, британским бизнесменом и шпионом, заинтересованном в постоянном контакте с Москвой. Разведчики договариваются о сотрудничестве, не представляя, чем оно закончится для каждого.

  • Мировая премьера: 24 января 2020
  • Российская премьера: 18 марта 2021


Качество видео: WEB-DLRip

Продолжительность: 01:52:00
Формат: AVI
Видео: XviD, 720x304 (2.35:1), 23.976 fps, 1470 kbps
Аудио: русский, любительский двухголосый закадровый (Pazl Voice), AC3 5.1, 48 kHz, 384 kbps

Код:

Общее
Complete name               : The_Courier_2021_2020_WEB-DLRip_DVO_by_Dalemake.avi
Format                      : AVI
Format/Info                 : Audio Video Interleave
File size                   : 1.46 GiB
Duration                    : 1 h 52 min
Overall bit rate            : 1 864 kb/s
Writing application         : VirtualDubMod 1.5.10.3 | www.virtualdub-fr.org || (build 2550/release)
Writing library             : VirtualDubMod build 2550/release

Video
ID                          : 0
Format                      : MPEG-4 Visual
Format profile              : Advanced Simple@L5
Format settings             : BVOP1 / Custom Matrix
Format settings, BVOP       : 1
Format settings, QPel       : No
Format settings, GMC        : No warppoints
Format settings, Matrix     : Custom
Codec ID                    : XVID
Codec ID/Hint               : XviD
Duration                    : 1 h 52 min
Bit rate                    : 1 470 kb/s
Width                       : 720 pixels
Height                      : 304 pixels
Display aspect ratio        : 2.35:1
Frame rate                  : 23.976 (24000/1001) FPS
Color space                 : YUV
Chroma subsampling          : 4:2:0
Bit depth                   : 8 bits
Scan type                   : Progressive
Compression mode            : Lossy
Bits/(Pixel*Frame)          : 0.280
Stream size                 : 1.15 GiB (79%)
Writing library             : XviD 69

Audio
ID                          : 1
Format                      : AC-3
Format/Info                 : Audio Coding 3
Commercial name             : Dolby Digital
Codec ID                    : 2000
Duration                    : 1 h 52 min
Bit rate mode               : Constant
Bit rate                    : 384 kb/s
Channel(s)                  : 2 channels
Channel layout              : L R
Sampling rate               : 48.0 kHz
Frame rate                  : 31.250 FPS (1536 SPF)
Compression mode            : Lossy
Stream size                 : 308 MiB (21%)
Alignment                   : Split across interleaves
Interleave, duration        : 42  ms (1.00 video frame)
Interleave, preload duratio : 500  ms
Service kind                : Complete Main

Этот торрент недоступен для скачивания без регистрации, однако доступен по публичной magnet-ссылке (источники с публичных трекеров). Перед использованием ссылки прочтите, пожалуйста Пользовательское соглашение, а также как можно дольше оставайтесь на раздаче! Для того, чтобы скачать сам торрент-файл (который видит больше источников), а также для того, чтобы поблагодарить релизера, вам необходимо зарегистрироваться. Если регистрироваться лень - вы можете также попробовать скачать релиз по нашим партнерским ссылкам ниже. Кроме того, зарегистрированным пользователям не показывается всплывающая реклама при скачивании.

[underver.se].t204893.torrent
Трекер: Зарегистрирован   [ 17.04.2021 21:47 ]  

Статус: проверено (by makkol at 17.04.2021 21:47)
Поблагодарили: пока никто не поблагодарил...
Тип торрента: публичный - доступные источники с открытых трекеров: 
Размер: 1,46 GB (занимает 1/3 DVDR, для записи нужно 1 болванка DVDR/RW)
 
 
Похожие темы
Форум Тема Автор Торрент Отв. Посл. сооб.
Зарубежное кино [DVDRip, Low-Res HDRip, и т.д.] Игры шпионов / The Courier (Доминик Кук) [2020 г., триллер, WEB-DLRip] MVO (HDrezka Studio) makkol
15 | 0

0 | 468

21

25.04.2021 10:40

Зарубежное кино [DVDRip, Low-Res HDRip, и т.д.] Игры шпионов / The Courier (Доминик Кук) [2020, Триллер, BDRip] MVO (HDRezka Studio) + Sub (Rus/Eng) Konin
3 | 0

0 | 177

9

30.05.2021 08:38

Зарубежное кино [DVDRip, Low-Res HDRip, и т.д.] Игры шпионов / The Courier (Доминик Кук) [2020, Триллер, BDRip] 2xMVO (HDRezka Studio - Rus/Ukr) + Sub (Rus/Eng) Konin
29 | 2

0 | 233

9

30.05.2021 08:39

Зарубежное кино [DVDRip, Low-Res HDRip, и т.д.] Игры шпионов / The Courier (Доминик Кук) [2020, Триллер, BDRip] Dub (iTunes) + Sub (Rus/Eng) Konin
11 | 0

0 | 278

22

10.06.2021 22:04

Зарубежное кино [DVDRip, Low-Res HDRip, и т.д.] Игры шпионов / The Courier (Доминик Кук) [2020, Триллер, BDRip] Dub (iTunes) + MVO (HDrezka Studio) + Sub (Rus/Eng) Konin
9 | 0

0 | 223

8

10.06.2021 22:04

Зарубежное кино [DVD / HDDVD / BD / Remux] Игры шпионов / The Courier (Доминик Кук) [2020, Триллер, BDRemux 1080p] 2xMVO (HDRezka Studio - Rus/Ukr) + Sub (Rus/Eng) Konin
2 | 0

0 | 338

4

31.05.2021 17:41

Зарубежное кино [DVD / HDDVD / BD / Remux] Игры шпионов / The Courier (Доминик Кук) [2020, Триллер, BDRemux 1080p] Dub (iTunes) + MVO (HDrezka Studio) + Original + Sub (Rus/Eng) Konin
2 | 1

0 | 304

9

10.06.2021 22:06

Зарубежное кино [HDDVDRip / BDRip / WEB-DL / HDTV 1080/720р] Игры шпионов / The Courier (Доминик Кук) [2020 г., триллер, WEB-DL 1080p] DVO (Pazl Voice) + Original makkol
7 | 0

0 | 853

59

17.04.2021 21:54

Зарубежное кино [HDDVDRip / BDRip / WEB-DL / HDTV 1080/720р] Игры шпионов / The Courier (Доминик Кук) [2020 г., триллер, WEB-DL 720p] MVO (HDrezka Studio) + Original makkol
30 | 0

0 | 398

17

25.04.2021 10:53

Зарубежное кино [HDDVDRip / BDRip / WEB-DL / HDTV 1080/720р] Игры шпионов / The Courier (Доминик Кук) [2020 г., триллер, WEB-DL 1080p] MVO (HDrezka Studio) + Original makkol
11 | 0

0 | 622

31

25.04.2021 10:58


Яндекс.Метрика powered by Sphinx


В Н И М А Н И Е
Сайт не распространяет и не хранит электронные версии произведений, а лишь бесплатно и без коммерческой выгоды (не требуя взамен платы,
SMS и т.д.) предоставляет доступ к создаваемому пользователями каталогу ссылок на торрент-файлы, которые содержат только списки хеш-сумм.
Убедительная просьба с жалобами обращаться напрямую к пользователю, разместившему торрент файл.

Вверх