Loading...
Error

Никто / Nobody (Илья Найшуллер) [2021 г., боевик, криминальный, триллер, WEB-DLRip 1080p] 2 х MVO (HDRezka Studio) + Original (Eng) + Sub (Rus, eng)

Статистика раздачи
Размер:  7.39 GB   |    Зарегистрирован:  1 год 5 месяцев   |    Скачан:  41 раз

Полного источника не было: 13 дней

Сидов:  0  |  0 KB/s  ]   Личеров:  0  |  0 KB/s  ]

* - сиды/пиры с внешних источников

   
 
Автор Сообщение

bosom 

20-Апр-2021 11:44

Никто / Nobody


Год выпуска: 2021
Жанр: боевик, криминальный, триллер
Страна: США
Режиссер: Илья Найшуллер
В ролях: Боб Оденкёрк, Алексей Серебряков, Конни Нильсен, Кристофер Ллойд, Майкл Айронсайд, Колин Сэлмон, RZA, Билли Маклеллан, Арая Менгеша, Гейдж Манро
Сюжет фильма:
Непримечательный и незаметный человек живёт обычной жизнью, пока однажды, спасая женщину от нападения бандитов, не отправляет одного из хулиганов в больницу. Лишь позже он узнаёт, что это был брат влиятельного гангстера, который теперь жаждет мести.

Релиз:
Качество видео: WEB-DLRip 1080p

Видео: MPEG-4 AVC, 1920x800, 9368 Kbit/s, 23.976 fps
Аудио #01: 48 kHz, AC3, 5.1, 448 Kbps | Профессиональный многоголосый
Аудио #02: 48 kHz, AC3, 5.1, 448 Kbps | Профессиональный многоголосый
Аудио #03: 48 kHz, E-AC3, 5.1, 640 Kbps | Оригинал | ENG |
Аудио #04: 48 kHz, AC3, 5.1, 640 Kbps | Оригинал | ENG |
Субтитры: Русские (Forced, full), английские

Код:

General
Unique ID : 304754431570521648564343180903472530920 (0xE545918C2431DA65DE99C4EDEB7D85E8)
Complete name : F:\Video\2\Nobody.2021.AMZN.WEB-DL.1080p.seleZen.mkv
Format : Matroska
Format version : Version 4
File size : 7.39 GiB
Duration : 1 h 31 min
Overall bit rate : 11.5 Mb/s
Movie name : Nobody 2021 from seleZen
Encoded date : UTC 2021-04-20 02:43:46
Writing application : mkvmerge v55.0.0 ('Waiting For Space') 64-bit
Writing library : libebml v1.4.2 + libmatroska v1.6.4

Video
ID : 1
Format : AVC
Format/Info : Advanced Video Codec
Format profile : [email protected]
Format settings : CABAC / 4 Ref Frames
Format settings, CABAC : Yes
Format settings, Reference : 4 frames
Codec ID : V_MPEG4/ISO/AVC
Duration : 1 h 31 min
Bit rate mode : Constant
Bit rate : 9 368 kb/s
Nominal bit rate : 10 000 kb/s
Width : 1 920 pixels
Height : 800 pixels
Display aspect ratio : 2.40:1
Frame rate mode : Constant
Frame rate : 23.976 (24000/1001) FPS
Color space : YUV
Chroma subsampling : 4:2:0
Bit depth : 8 bits
Scan type : Progressive
Bits/(Pixel*Frame) : 0.254
Stream size : 6.00 GiB (81%)
Language : English
Default : Yes
Forced : No
Color range : Limited
Color primaries : BT.709
Transfer characteristics : BT.709
Matrix coefficients : BT.709

Audio #1
ID : 2
Format : AC-3
Format/Info : Audio Coding 3
Commercial name : Dolby Digital
Codec ID : A_AC3
Duration : 1 h 31 min
Bit rate mode : Constant
Bit rate : 448 kb/s
Channel(s) : 6 channels
Channel layout : L R C LFE Ls Rs
Sampling rate : 48.0 kHz
Frame rate : 31.250 FPS (1536 SPF)
Compression mode : Lossy
Stream size : 294 MiB (4%)
Title : MVO [HDRezka Studio (Censored)]
Language : Russian
Service kind : Complete Main
Default : Yes
Forced : Yes

Audio #2
ID : 3
Format : AC-3
Format/Info : Audio Coding 3
Commercial name : Dolby Digital
Codec ID : A_AC3
Duration : 1 h 31 min
Bit rate mode : Constant
Bit rate : 448 kb/s
Channel(s) : 6 channels
Channel layout : L R C LFE Ls Rs
Sampling rate : 48.0 kHz
Frame rate : 31.250 FPS (1536 SPF)
Compression mode : Lossy
Stream size : 294 MiB (4%)
Title : MVO [HDRezka Studio (Uncensored)]
Language : Russian
Service kind : Complete Main
Default : No
Forced : No

Audio #3
ID : 4
Format : E-AC-3
Format/Info : Enhanced AC-3
Commercial name : Dolby Digital Plus
Codec ID : A_EAC3
Duration : 1 h 31 min
Bit rate mode : Constant
Bit rate : 640 kb/s
Channel(s) : 6 channels
Channel layout : L R C LFE Ls Rs
Sampling rate : 48.0 kHz
Frame rate : 31.250 FPS (1536 SPF)
Compression mode : Lossy
Stream size : 420 MiB (6%)
Title : Original
Language : English
Service kind : Complete Main
Default : No
Forced : No

Audio #4
ID : 5
Format : AC-3
Format/Info : Audio Coding 3
Commercial name : Dolby Digital
Codec ID : A_AC3
Duration : 1 h 31 min
Bit rate mode : Constant
Bit rate : 640 kb/s
Channel(s) : 6 channels
Channel layout : L R C LFE Ls Rs
Sampling rate : 48.0 kHz
Frame rate : 31.250 FPS (1536 SPF)
Compression mode : Lossy
Stream size : 420 MiB (6%)
Language : English
Service kind : Complete Main
Default : No
Forced : No

Text #1
ID : 6
Format : UTF-8
Codec ID : S_TEXT/UTF8
Codec ID/Info : UTF-8 Plain Text
Duration : 1 h 29 min
Bit rate : 3 b/s
Count of elements : 68
Stream size : 2.41 KiB (0%)
Title : Forced [HDRezka Studio]
Language : Russian
Default : Yes
Forced : Yes

Text #2
ID : 7
Format : UTF-8
Codec ID : S_TEXT/UTF8
Codec ID/Info : UTF-8 Plain Text
Duration : 1 h 28 min
Bit rate : 51 b/s
Count of elements : 805
Stream size : 33.3 KiB (0%)
Title : Full [FOCS (Uncensored)]
Language : Russian
Default : No
Forced : No

Text #3
ID : 8
Format : UTF-8
Codec ID : S_TEXT/UTF8
Codec ID/Info : UTF-8 Plain Text
Duration : 1 h 26 min
Bit rate : 28 b/s
Count of elements : 740
Stream size : 18.1 KiB (0%)
Title : Full
Language : English
Default : No
Forced : No

Text #4
ID : 9
Format : UTF-8
Codec ID : S_TEXT/UTF8
Codec ID/Info : UTF-8 Plain Text
Duration : 1 h 31 min
Bit rate : 48 b/s
Count of elements : 1329
Stream size : 32.4 KiB (0%)
Title : SDH
Language : English
Default : No
Forced : No

Этот торрент недоступен для скачивания без регистрации, однако доступен по публичной magnet-ссылке (источники с публичных трекеров). Перед использованием ссылки прочтите, пожалуйста Пользовательское соглашение, а также как можно дольше оставайтесь на раздаче! Для того, чтобы скачать сам торрент-файл (который видит больше источников), а также для того, чтобы поблагодарить релизера, вам необходимо зарегистрироваться. Если регистрироваться лень - вы можете также попробовать скачать релиз по нашим партнерским ссылкам ниже. Кроме того, зарегистрированным пользователям не показывается всплывающая реклама при скачивании.

[underver.se].t205071.torrent
Трекер: Зарегистрирован   [ 20.04.2021 11:44 ]  
Статус: проверено (by ARI71 at 20.04.2021 12:14)
Поблагодарили: 2 человека
Тип торрента: публичный - доступные источники с открытых трекеров: 
Размер: 7.39 GB (занимает 1.69 DVDR, для записи нужно 2 болванки DVDR/RW)
 
 


Последний раз редактировалось: bosom (20.04.2021 12:14), всего редактировалось 6 раз(а)

ARI71 Пол:Муж

20-Апр-2021 11:55

Добавьте пож-та скриншоты. Они должны выглядеть в виде фото, а не прямых ссылок на хостинг картинок!

bosom 

20-Апр-2021 12:04

Хотел попробовать создавать раздачи.
Прочитал гайд: https://underver.se/viewtopic.php?t=2401
Сделал раздачу в соответствии с гайдом.
В результате получаю что мой релиз недооформлен без каких либо пояснений.

Как разработчик я не приемлю такой подход и отношение и считаю что это вредительский для форума подход. Например мне уже точно расхотелось что либо оформлять тут на трекере, лучше быть как все, просто потребителем.
Вместо этого вы могли бы сделать универсальную форму с возможностью автоматической проверки и автоматического оформления раздач по данным формы!
Даже если не форма, могли бы создать тупо шаблон в котором надо заменить или удалить что-либо.

В общем, что именно дооформлять я не понял, всё сделано по гайду https://underver.se/viewtopic.php?t=2401
Ну а как разработчик, я могу помочь с нормальной формой для оформления раздач, главное полное ТЗ описать.
Ну а а так как я не понял что именно дооформлять, можно раздачу удалить.
Всем спасибо за проделанную бесполезную работу.

ARI71 Пол:Муж

20-Апр-2021 12:14

Ну вот Вы и молодец! И всё у Вас получилось! Поздравляю с первой раздачей! Ждём следующих! :good:

Яндекс.Метрика powered by Sphinx


В Н И М А Н И Е
Сайт не распространяет и не хранит электронные версии произведений, а лишь бесплатно и без коммерческой выгоды (не требуя взамен платы,
SMS и т.д.) предоставляет доступ к создаваемому пользователями каталогу ссылок на торрент-файлы, которые содержат только списки хеш-сумм.
Убедительная просьба с жалобами обращаться напрямую к пользователю, разместившему торрент файл.

Вверх