Loading...
Error

Никто, кроме тебя / Tu o Nadie / серии 01-25 (60) (Хосе Рендон) [1985, Мексика, Криминальная мелодрама, TVRip] MVO (ТВ-6)

Статистика раздачи
Размер:  9.32 GB   |    Зарегистрирован:  1 год 5 месяцев   |    Скачан:  1 раз

Полного источника не было: 10 месяцев

Сидов:  0  |  0 KB/s  ]   Личеров:  0  |  0 KB/s  ]

* - сиды/пиры с внешних источников

   
 
Автор Сообщение

cheloweck.dojdya Пол:Муж

25-Апр-2021 16:19

Никто, кроме тебя 01-25 серии из 60 / Tu o Nadie


Год выпуска: 1985
Страна: Мексика
Жанр: Криминальная мелодрама, телесериал
Продолжительность: ~ по 40 мин 25 серий.
Перевод: Профессиональный (многоголосый, закадровый)
Русские субтитры: нет

Режиссер: Хосе Рендон

В ролях: Лусия Мендес, Андрес Гарсия, Сальвадор Пинеда, Лилиана Абуд, Магда Гусман,
Мигель Масано, Ребекка Сильва, Арсенио Кампос, Джулиета Эгирола, Абрахам Мендес,
Тони Браво, Гастон Туссет, Лус Мария Херес, Антонио Валенсия, Роберто Антуньес,
Гильермо Зарур, Мигель Анхель Негрете, Марсела де Галина, Хакаранда Альфаро,
Фернандо Саенс.

Описание: Ракель, честная и порядочная девушка, выходит замуж за Антонио Ломбардо, но ее муж
погибает сразу после свадьбы. Прилетев на его похороны, она обнаруживает, что ее муж
очень богат, и что она вышла замуж вовсе не за Антонио, а за его сводного брата
Максимиллиано, который воспользовался ее любовью, чтобы она, Ракель, получила все
деньги, а потом они разделили бы их между собой. Но Максимиллиано не учел одного -
того, что Ракель окажется слишком порядочной и честной, а также того, что Антонио
Ломбардо останется жив...

Качество: TVRip
Формат: AVI
Видео кодек: XviD
Видео: 640x480 (1.33:1), 25 fps, XviD MPEG-4 ~1199 kbps avg, 0.16 bit/pixel
Аудио: 44.100 kHz, MPEG Layer 3, 2 ch, ~128.00 kbps avg

Код:

General
Complete name               : T:\NKT_01-25\NKT.e02 Tvrip.avi
Format                      : AVI
Format/Info                 : Audio Video Interleave
File size                   : 404 MiB
Duration                    : 42 min 6 s
Overall bit rate            : 1 341 kb/s

Video
ID                          : 0
Format                      : MPEG-4 Visual
Format profile              : Advanced [email protected]
Format settings, BVOP       : No
Format settings, QPel       : No
Format settings, GMC        : No warppoints
Format settings, Matrix     : Default (H.263)
Codec ID                    : XVID
Codec ID/Hint               : XviD
Duration                    : 42 min 6 s
Bit rate                    : 1 200 kb/s
Width                       : 640 pixels
Height                      : 480 pixels
Display aspect ratio        : 4:3
Frame rate                  : 25.000 FPS
Color space                 : YUV
Chroma subsampling          : 4:2:0
Bit depth                   : 8 bits
Scan type                   : Progressive
Compression mode            : Lossy
Bits/(Pixel*Frame)          : 0.156
Stream size                 : 362 MiB (90%)
Writing library             : Magic0432

Audio
ID                          : 1
Format                      : MPEG Audio
Format version              : Version 1
Format profile              : Layer 3
Format settings             : Joint stereo / MS Stereo
Codec ID                    : 55
Codec ID/Hint               : MP3
Duration                    : 42 min 6 s
Bit rate mode               : Constant
Bit rate                    : 128 kb/s
Channel(s)                  : 2 channels
Sampling rate               : 44.1 kHz
Compression mode            : Lossy
Stream size                 : 38.6 MiB (10%)
Alignment                   : Aligned on interleaves
Interleave, duration        : 26  ms (0.65 video frame)


Мои раздачи

Этот торрент недоступен для скачивания без регистрации, однако доступен по публичной magnet-ссылке (источники с публичных трекеров). Перед использованием ссылки прочтите, пожалуйста Пользовательское соглашение, а также как можно дольше оставайтесь на раздаче! Для того, чтобы скачать сам торрент-файл (который видит больше источников), а также для того, чтобы поблагодарить релизера, вам необходимо зарегистрироваться. Если регистрироваться лень - вы можете также попробовать скачать релиз по нашим партнерским ссылкам ниже. Кроме того, зарегистрированным пользователям не показывается всплывающая реклама при скачивании.

[underver.se].t205636.torrent
Трекер: Зарегистрирован   [ 25.04.2021 16:19 ]  
Статус: проверено (by cheloweck.dojdya at 25.04.2021 16:20)
Поблагодарили: пока никто не поблагодарил...
Тип торрента: публичный - доступные источники с открытых трекеров: 
Размер: 9.32 GB (занимает 2.13 DVDR, для записи нужно 3 болванки DVDR/RW)
 
 


Последний раз редактировалось: cheloweck.dojdya (25.04.2021 16:26), всего редактировалось 1 раз

cheloweck.dojdya Пол:Муж

25-Апр-2021 16:21

Сиды есть!

Яндекс.Метрика powered by Sphinx


В Н И М А Н И Е
Сайт не распространяет и не хранит электронные версии произведений, а лишь бесплатно и без коммерческой выгоды (не требуя взамен платы,
SMS и т.д.) предоставляет доступ к создаваемому пользователями каталогу ссылок на торрент-файлы, которые содержат только списки хеш-сумм.
Убедительная просьба с жалобами обращаться напрямую к пользователю, разместившему торрент файл.

Вверх