Loading...
Error

Вадим Прокопчук | Создание сайтов От 0 до 1 [2021 г., HTML-верстка, программирование, PCRec]

Статистика раздачи
Размер:  13,57 GB   |    Зарегистрирован:  7 дней   |    Скачан:  27 раз
Сидов:  2  |  28 KB/s  ]   Личеров:  1  |  0 KB/s  ]

* - сиды/пиры с внешних источников

   
 
Автор Сообщение

eXtatik Пол:Муж

04-Май-2021 06:05

Вадим Прокопчук - Создание сайтов От 0 до 1 (2021) PCRec

Автор: Вадим Прокопчук
Жанр: HTML-верстка, программирование

Описание:
Как все происходит - 7 недель онлайн.
В личном кабинете онлайн школы Вы будете получать 3 урока в неделю.
В каждом уроке несколько видео для лучшего усвоения информации. После каждого урока домашнее задание. Проверка самостоятельно или ментором.
По субботам будут проходить открытые вебинары: вопрос - ответ со мной, общий разбор домашних заданий, рандомные домашние задания будут разбираться, основные ошибки анализироваться.
Чат всех участников, где Вы сможете помогать друг другу. Для пакета "С личным ментором", у вас будет индивидуальный чат с ментором, где Вы сможете решать все вопросы по необходимости.

Продолжительность: 60:34:03
Качество видео: PCRec

Видео: AVC/H.264, 1280x720, ~400 kbps
Аудио: AAC, 1 ch, 127 kbps
 
General

Format : MPEG-4
Format profile : Base Media / Version 2
Codec ID : mp42
File size : 441 MiB
Duration : 1h 47mn
Overall bit rate mode : Variable
Overall bit rate : 572 Kbps
Encoded date : UTC 2020-12-03 22:32:59
Tagged date : UTC 2020-12-03 22:32:59
gsst : 0
gstd : 6476091

Video
ID : 1
Format : AVC
Format/Info : Advanced Video Codec
Format profile : High@L3.1
Format settings, CABAC : Yes
Format settings, ReFrames : 3 frames
Codec ID : avc1
Codec ID/Info : Advanced Video Coding
Duration : 1h 47mn
Bit rate : 441 Kbps
Width : 1 280 pixels
Height : 720 pixels
Display aspect ratio : 16:9
Frame rate mode : Constant
Frame rate : 29.970 fps
Color space : YUV
Chroma subsampling : 4:2:0
Bit depth : 8 bits
Scan type : Progressive
Bits/(Pixel*Frame) : 0.016
Stream size : 340 MiB (77%)
Title : ISO Media file produced by Google Inc. Created on: 12/03/2020.
Encoded date : UTC 2020-12-03 22:32:59
Tagged date : UTC 2020-12-03 22:32:59
Color range : Limited
Color primaries : BT.709
Transfer characteristics : BT.709
Matrix coefficients : BT.709

Audio
ID : 2
Format : AAC
Format/Info : Advanced Audio Codec
Format profile : LC
Codec ID : 40
Duration : 1h 47mn
Bit rate mode : Variable
Bit rate : 128 Kbps
Channel(s) : 2 channels
Channel positions : Front: L R
Sampling rate : 44.1 KHz
Compression mode : Lossy
Stream size : 98.8 MiB (22%)
Title : ISO Media file produced by Google Inc. Created on: 12/03/2020.
Encoded date : UTC 2020-12-03 22:32:59
Tagged date : UTC 2020-12-03 22:32:59

Скриншоты:
pic pic pic pic

Этот торрент недоступен для скачивания без регистрации, однако доступен по публичной magnet-ссылке (источники с публичных трекеров). Перед использованием ссылки прочтите, пожалуйста Пользовательское соглашение, а также как можно дольше оставайтесь на раздаче! Для того, чтобы скачать сам торрент-файл (который видит больше источников), а также для того, чтобы поблагодарить релизера, вам необходимо зарегистрироваться. Если регистрироваться лень - вы можете также попробовать скачать релиз по нашим партнерским ссылкам ниже. Кроме того, зарегистрированным пользователям не показывается всплывающая реклама при скачивании.

[underver.se].t206406.torrent
Трекер: Зарегистрирован   [ 04.05.2021 06:05 ]  

Статус: проверено (by eXtatik at 04.05.2021 06:05)
Поблагодарили: пока никто не поблагодарил...
Тип торрента: публичный - доступные источники с открытых трекеров: 
Размер: 13,57 GB (занимает 3,1 DVDR, для записи нужно 4 болванки DVDR/RW)
 
 
Похожие темы
Форум Тема Автор Торрент Отв. Посл. сооб.
Компьютерные видеоуроки Вадим Прокопчук | Верстка сайтов от 0 до 1 [2020 г. программирование, PCRec] eXtatik
46 | 3

2 | 2023

86

11.02.2021 13:52


Яндекс.Метрика powered by Sphinx


В Н И М А Н И Е
Сайт не распространяет и не хранит электронные версии произведений, а лишь бесплатно и без коммерческой выгоды (не требуя взамен платы,
SMS и т.д.) предоставляет доступ к создаваемому пользователями каталогу ссылок на торрент-файлы, которые содержат только списки хеш-сумм.
Убедительная просьба с жалобами обращаться напрямую к пользователю, разместившему торрент файл.

Вверх