Loading...
Error

Харлан Кобен. Невиновен / El inocente / The Innocent [S01] (Ориол Паоло) [2021 г., триллер, драма, криминал, детектив, WEB-DL 1080p] MVO (HDrezka Studio) + Original (Eng) + Sub (Rus, Eng)

Статистика раздачи
Размер:  14,19 GB   |    Зарегистрирован:  7 дней   |    Скачан:  9 раз
Сидов:  1  |  35 KB/s  ]   Личеров:  1  |  680 KB/s  ]

* - сиды/пиры с внешних источников

   
 
Автор Сообщение

eXtatik Пол:Муж

04-Май-2021 06:21

Харлан Кобен. Невиновен / El inocente / The Innocent [S01]


Страна: Испания
Год выпуска: 2021
Жанр: триллер, драма, криминал, детектив
Продолжительность: ~00:50:00 / серия
Озвучивание: профессиональное (многоголосое закадровое) [HDrezka Studio]
Режиссёр: Ориол Паоло

В ролях:
    Марио Касас, Хави Саес, Сантьяго Понс, Александра Хименес, Хосе Коронадо, Мартина Гусман, Хуана Акоста, Суси Санчес, Аура Гарридо, Мики Эспарбе


Сюжет фильма:
    Экранизация романа Харлана Кобена.

    Случайная смерть вовлекает его в жуткий водоворот интриг и убийств. Не успевает он обрести свободу и любовь, как один телефонный звонок возвращает кошмар в его жизнь.

      Imdb    Kinopoisk   
Качество видео: WEB-DL 1080p | The.Innocent.S01.SPANISH.1080p.NF.WEB-DLRip.DDP5.1.x264-PAAI
Формат: MKV
Видео: AVC, 1920x1080 (16:9), 3214 kbps, 25 fps, 062 bit/pixel
Аудио #1: AC3, 448 kbps, 6 ch, 48 kHz, русский, профессиональный (многоголосый закадровый) (HDrezka Studio)
Аудио #2: E-AC3, 640 kbps, 6 ch, 48 kHz, английский
Субтитры: Russian (forced), Russian (full/NF/), English (SDH), English (full), English (forced)

***Примечание: Без рекламы
***18+ для зрителей, достигших возраста 18 лет
Общее 
Уникальный идентификатор : 39800210584450466652010774993113147419 (0x1DF13DE264E93B8C2F6B9508E8E7681B)
Полное имя : The.Innocent.S01E01.mkv
Формат : Matroska
Версия формата : Version 4
Размер файла : 1,53 Гбайт
Продолжительность : 51 м. 4 с.
Режим общего битрейта : Переменный
Общий поток : 4 303 Кбит/сек
Название фильма : The Innocent S01E01 | mrrvg@rutor
Дата кодирования : UTC 2021-05-02 14:46:48
Программа кодирования : mkvmerge v56.1.0 ('My Friend') 64-bit
Библиотека кодирования : libebml v1.4.2 + libmatroska v1.6.4

Видео
Идентификатор : 1
Формат : AVC
Формат/Информация : Advanced Video Codec
Профиль формата : High@L4
Настройки формата : CABAC / 4 Ref Frames
Параметр CABAC формата : Да
Параметр RefFrames формата : 4 кадра
Идентификатор кодека : V_MPEG4/ISO/AVC
Продолжительность : 51 м. 2 с.
Вид битрейта : Переменный
Битрейт : 3 214 Кбит/сек
Максимальный битрейт : 20,0 Мбит/сек
Ширина : 1 920 пикселей
Высота : 1 080 пикселей
Соотношение сторон : 16:9
Режим частоты кадров : Постоянный
Частота кадров : 25,000 кадров/сек
Цветовое пространство : YUV
Субдискретизация насыщенности : 4:2:0
Битовая глубина : 8 бит
Тип развёртки : Прогрессивная
Бит/(Пиксели*Кадры) : 0.062
Размер потока : 1,15 Гбайт (75%)
Библиотека кодирования : x264 core 148 r2722 1b0121b
Настройки программы : cabac=1 / ref=4 / deblock=1:0:0 / analyse=0x3:0x111 / me=umh / subme=10 / psy=1 / psy_rd=1.00:0.00 / mixed_ref=1 / me_range=120 / chroma_me=1 / trellis=2 / 8x8dct=1 / cqm=0 / deadzone=21,11 / fast_pskip=1 / chroma_qp_offset=-2 / threads=6 / lookahead_threads=1 / sliced_threads=0 / nr=0 / decimate=1 / interlaced=0 / bluray_compat=0 / stitchable=1 / constrained_intra=0 / bframes=16 / b_pyramid=2 / b_adapt=2 / b_bias=0 / direct=3 / weightb=1 / open_gop=0 / weightp=2 / keyint=250 / keyint_min=126 / scenecut=0 / intra_refresh=0 / rc_lookahead=250 / rc=crf / mbtree=1 / crf=16.0 / qcomp=0.50 / qpmin=6 / qpmax=51 / qpstep=4 / vbv_maxrate=20000 / vbv_bufsize=25000 / crf_max=0.0 / nal_hrd=vbr / filler=0 / ip_ratio=1.40 / aq=1:0.80
Default : Да
Forced : Нет

Аудио #1
Идентификатор : 2
Формат : AC-3
Формат/Информация : Audio Coding 3
Коммерческое название : Dolby Digital
Идентификатор кодека : A_AC3
Продолжительность : 51 м. 3 с.
Вид битрейта : Постоянный
Битрейт : 448 Кбит/сек
Каналы : 6 каналов
Channel layout : L R C LFE Ls Rs
Частота : 48,0 КГц
Частота кадров : 31,250 кадров/сек (1536 SPF)
Метод сжатия : С потерями
Размер потока : 164 Мбайт (10%)
Язык : Russian
Service kind : Complete Main
Default : Да
Forced : Нет

Аудио #2
Идентификатор : 3
Формат : E-AC-3
Формат/Информация : Enhanced AC-3
Коммерческое название : Dolby Digital Plus
Идентификатор кодека : A_EAC3
Продолжительность : 51 м. 4 с.
Вид битрейта : Постоянный
Битрейт : 640 Кбит/сек
Каналы : 6 каналов
Channel layout : L R C LFE Ls Rs
Частота : 48,0 КГц
Частота кадров : 31,250 кадров/сек (1536 SPF)
Метод сжатия : С потерями
Размер потока : 234 Мбайт (15%)
Язык : English
Service kind : Complete Main
Default : Нет
Forced : Нет

Текст #1
Идентификатор : 4
Формат : UTF-8
Идентификатор кодека : S_TEXT/UTF8
Идентификатор кодека/Информация : UTF-8 Plain Text
Продолжительность : 44 м. 3 с.
Битрейт : 3 бит/сек
Count of elements : 31
Размер потока : 1,19 Кбайт (0%)
Заголовок : Forced
Язык : Russian
Default : Да
Forced : Нет

Текст #2
Идентификатор : 5
Формат : UTF-8
Идентификатор кодека : S_TEXT/UTF8
Идентификатор кодека/Информация : UTF-8 Plain Text
Продолжительность : 50 м. 9 с.
Битрейт : 67 бит/сек
Count of elements : 492
Размер потока : 24,8 Кбайт (0%)
Заголовок : Full |NF|
Язык : Russian
Default : Нет
Forced : Нет

Текст #3
Идентификатор : 6
Формат : UTF-8
Идентификатор кодека : S_TEXT/UTF8
Идентификатор кодека/Информация : UTF-8 Plain Text
Продолжительность : 45 м. 43 с.
Битрейт : 59 бит/сек
Count of elements : 631
Размер потока : 20,0 Кбайт (0%)
Заголовок : SDH
Язык : English
Default : Нет
Forced : Нет

Текст #4
Идентификатор : 7
Формат : UTF-8
Идентификатор кодека : S_TEXT/UTF8
Идентификатор кодека/Информация : UTF-8 Plain Text
Продолжительность : 50 м. 9 с.
Битрейт : 42 бит/сек
Count of elements : 489
Размер потока : 15,7 Кбайт (0%)
Заголовок : Full
Язык : English
Default : Нет
Forced : Нет

Текст #5
Идентификатор : 8
Формат : UTF-8
Идентификатор кодека : S_TEXT/UTF8
Идентификатор кодека/Информация : UTF-8 Plain Text
Продолжительность : 44 м. 11 с.
Битрейт : 0 бит/сек
Count of elements : 14
Размер потока : 293 байт (0%)
Заголовок : Forced
Язык : English
Default : Нет
Forced : Нет


pic pic pic pic pic pic pic pic pic

Этот торрент недоступен для скачивания без регистрации, однако доступен по публичной magnet-ссылке (источники с публичных трекеров). Перед использованием ссылки прочтите, пожалуйста Пользовательское соглашение, а также как можно дольше оставайтесь на раздаче! Для того, чтобы скачать сам торрент-файл (который видит больше источников), а также для того, чтобы поблагодарить релизера, вам необходимо зарегистрироваться. Если регистрироваться лень - вы можете также попробовать скачать релиз по нашим партнерским ссылкам ниже. Кроме того, зарегистрированным пользователям не показывается всплывающая реклама при скачивании.

[underver.se].t206414.torrent
Трекер: Зарегистрирован   [ 04.05.2021 06:21 ]  

Статус: проверено (by eXtatik at 04.05.2021 06:21)
Поблагодарили: пока никто не поблагодарил...
Тип торрента: публичный - доступные источники с открытых трекеров: 
Размер: 14,19 GB (занимает 3,24 DVDR, для записи нужно 4 болванки DVDR/RW)
 
 
Похожие темы
Форум Тема Автор Торрент Отв. Посл. сооб.
Зарубежные сериалы Харлан Кобен. Невиновен / El inocente / The Innocent [S01] (Ориол Паоло) [2021 г., триллер, драма, криминал, детектив, WEB-DLRip] MVO (HDRezka Studio) + Original (Eng) + Sub (Rus, Eng) eXtatik
617 | 180

0 | 175

7

04.05.2021 07:47

Боевик, детектив, триллер Харлан Кобен - Майрон Болитар 04. Подкрутка [2021, Детектив, MP3, 96 kbps] Andris
1 | 0

0 | 241

4

12.01.2021 07:32

Боевик, детектив, триллер Харлан Кобен - Укороченный удар [2019, Детектив, MP3, 128 kbps] Andris
5 | 0

0 | 207

6

13.12.2020 06:25

Боевик, детектив, триллер Харлан Кобен - Майрон и Микки Болитар 05. Один неверный шаг [2019, Детектив, Mp3, 128 Kbps] Andris
7 | 0

0 | 423

2

31.12.2020 16:42

Боевик, детектив, триллер Харлан Кобен - Майрон Болитар 01. Нарушитель сделки [2021, Детектив, MP3, 96 kbps] Andris
2 | 0

0 | 250

5

11.01.2021 10:04

Боевик, детектив, триллер Харлан Кобен - Майрон Болитар 02. Укороченный удар [2021, Детектив, MP3, 96 kbps] Andris
2 | 0

0 | 206

4

11.01.2021 10:06

Боевик, детектив, триллер Харлан Кобен - Майрон Болитар 03. Вне игры [2021, Детектив, MP3, 96 kbps] Andris
6 | 0

0 | 252

6

11.01.2021 10:08

Ужасы, мистика Харлан Кобен - Последыш [2020, Мистический или криптографический детектив, Mp3, 192 Kbps] Andris
0 | 1

0 | 349

3

01.01.2021 05:11

Детектив, боевик, триллер Харлан Кобен - Не отпускай [2019 г., детективы, триллеры, FB2] RUS Паукан
9 | 0

0 | 395

7

11.06.2019 14:09

Детектив, боевик, триллер Харлан Кобен - Собрание сочинений [1995-2017 г., детектив, триллер, FB2, RTF] RUS Паукан
0 | 3

0 | 353

8

23.07.2019 17:01


Яндекс.Метрика powered by Sphinx


В Н И М А Н И Е
Сайт не распространяет и не хранит электронные версии произведений, а лишь бесплатно и без коммерческой выгоды (не требуя взамен платы,
SMS и т.д.) предоставляет доступ к создаваемому пользователями каталогу ссылок на торрент-файлы, которые содержат только списки хеш-сумм.
Убедительная просьба с жалобами обращаться напрямую к пользователю, разместившему торрент файл.

Вверх