Loading...
Error

Гнев человеческий / Wrath of Man (Гай Ричи) [2021 г., боевик, триллер, WEB-DL 1080p] VO (feofanio) + Original + Sub

Статистика раздачи
Размер:  8.14 GB   |    Зарегистрирован:  1 год 4 месяца   |    Скачан:  34 раза

Полного источника не было: 1 день 16 часов

Сидов:  0  |  0 KB/s  ]   Личеров:  0  |  0 KB/s  ]

* - сиды/пиры с внешних источников

   
 
Автор Сообщение

makkol Пол:Муж

27-Май-2021 22:30

Гнев человеческий / Wrath of Man


Год выпуска: 2021
Жанр: боевик, триллер
Производство: США , Великобритания [Metro-Goldwyn-Mayer (MGM), Miramax, CAA Media Finance]
Режиссер: Гай Ричи
В ролях: Джейсон Стэйтем, Холт Маккэллани, Джеффри Донован, Джош Хартнетт, Лаз Алонсо, Алекс Фернс, Рауль Кастильо, Деобиа Опарей, Скотт Иствуд, Нив Алгар
Сюжет фильма:
Эйч — загадочный и холодный на вид джентльмен, но внутри него пылает жажда справедливости. Преследуя свои мотивы, он внедряется в инкассаторскую компанию, чтобы выйти на соучастников серии многомиллионных ограблений, потрясших Лос-Анджелес. В этой запутанной игре у каждого своя роль, но под подозрением оказываются все. Виновных же обязательно постигнет гнев человеческий.

  • Мировая премьера: 22 апреля 2021
  • Российская премьера: 22 апреля 2021


Качество видео: WEB-DL 1080p [AMAZON]

Продолжительность: 01:58:56
Формат: MKV
Видео: MPEG-4 AVC, 1920x800 (2.40:1), 23.976 fps, 8546 kbps
Аудио #1: русский, любительский одноголосый закадровый (feofanio), MP3 2.0, 48 kHz, 224 kbps
Аудио #2: английский, оригинал, AC3 5.1, 48 kHz, 384 kbps
Аудио #3: английский, оригинал, E-AC3 5.1, 48 kHz, 640 kbps
Субтитры: русские, английские вшитые отключаемые

Код:

Общее
Уникальный идентификатор                 : 190658654706870872061542387855558917252 (0x8F6F856F0B65A41CBCAC573B2EE73C84)
Полное имя                               : Wrath.of.Man.2021.1080p.AMZN.WEB-DL.DDP5.1.H264-CMRG.Ru.En.mkv
Формат                                   : Matroska
Версия формата                           : Version 4
Размер файла                             : 8,14 Гбайт
Продолжительность                        : 1 ч. 58 м.
Общий поток                              : 9 797 Кбит/сек
Название фильма                          : Wrath.of.Man.2021.CMRG
Дата кодирования                         : UTC 2021-05-26 22:02:32
Программа кодирования                    : mkvmerge v52.0.0 ('Secret For The Mad') 64-bit
Библиотека кодирования                   : libebml v1.4.1 + libmatroska v1.6.2
 
Видео
Идентификатор                            : 1
Формат                                   : AVC
Формат/Информация                        : Advanced Video Codec
Профиль формата                          : [email protected]
Настройки формата                        : CABAC / 4 Ref Frames
Параметр CABAC формата                   : Да
Параметр RefFrames формата               : 4 кадра
Идентификатор кодека                     : V_MPEG4/ISO/AVC
Продолжительность                        : 1 ч. 58 м.
Вид битрейта                             : Постоянный
Битрейт                                  : 8 546 Кбит/сек
Номинальный битрейт                      : 10 000 Кбит/сек
Ширина                                   : 1 920 пикселей
Высота                                   : 800 пикселей
Соотношение сторон                       : 2,40:1
Режим частоты кадров                     : Постоянный
Частота кадров                           : 23,976 (24000/1001) кадра/сек
Цветовое пространство                    : YUV
Субдискретизация насыщенности            : 4:2:0
Битовая глубина                          : 8 бит
Тип развёртки                            : Прогрессивная
Бит/(Пиксели*Кадры)                      : 0.232
Размер потока                            : 7,10 Гбайт (87%)
Default                                  : Да
Forced                                   : Нет
Цветовой диапазон                        : Limited
Основные цвета                           : BT.709
Характеристики трансфера                 : BT.709
Коэффициенты матрицы                     : BT.709
 
Аудио #1
Идентификатор                            : 2
Формат                                   : MPEG Audio
Версия формата                           : Version 1
Профиль формата                          : Layer 3
Настройки формата                        : Joint stereo
Идентификатор кодека                     : A_MPEG/L3
Идентификатор кодека/Подсказка           : MP3
Продолжительность                        : 1 ч. 58 м.
Вид битрейта                             : Постоянный
Битрейт                                  : 224 Кбит/сек
Каналы                                   : 2 канала
Частота                                  : 48,0 КГц
Частота кадров                           : 41,667 кадра/сек (1152 SPF)
Метод сжатия                             : С потерями
Размер потока                            : 191 Мбайт (2%)
Язык                                     : Russian
Default                                  : Да
Forced                                   : Нет
 
Аудио #2
Идентификатор                            : 3
Формат                                   : AC-3
Формат/Информация                        : Audio Coding 3
Коммерческое название                    : Dolby Digital
Идентификатор кодека                     : A_AC3
Продолжительность                        : 1 ч. 58 м.
Вид битрейта                             : Постоянный
Битрейт                                  : 384 Кбит/сек
Каналы                                   : 6 каналов
Channel layout                           : L R C LFE Ls Rs
Частота                                  : 48,0 КГц
Частота кадров                           : 31,250 кадров/сек (1536 SPF)
Метод сжатия                             : С потерями
Размер потока                            : 327 Мбайт (4%)
Язык                                     : English
Service kind                             : Complete Main
Default                                  : Нет
Forced                                   : Нет
 
Аудио #3
Идентификатор                            : 4
Формат                                   : E-AC-3
Формат/Информация                        : Enhanced AC-3
Коммерческое название                    : Dolby Digital Plus
Идентификатор кодека                     : A_EAC3
Продолжительность                        : 1 ч. 58 м.
Вид битрейта                             : Постоянный
Битрейт                                  : 640 Кбит/сек
Каналы                                   : 6 каналов
Channel layout                           : L R C LFE Ls Rs
Частота                                  : 48,0 КГц
Частота кадров                           : 31,250 кадров/сек (1536 SPF)
Метод сжатия                             : С потерями
Размер потока                            : 544 Мбайт (7%)
Заголовок                                : English
Язык                                     : English
Service kind                             : Complete Main
Default                                  : Нет
Forced                                   : Нет
 
Текст #1
Идентификатор                            : 5
Формат                                   : UTF-8
Идентификатор кодека                     : S_TEXT/UTF8
Идентификатор кодека/Информация          : UTF-8 Plain Text
Продолжительность                        : 1 ч. 51 м.
Битрейт                                  : 103 бит/сек
Count of elements                        : 1748
Размер потока                            : 84,1 Кбайт (0%)
Заголовок                                : Russian
Язык                                     : Russian
Default                                  : Нет
Forced                                   : Нет
 
Текст #2
Идентификатор                            : 6
Формат                                   : UTF-8
Идентификатор кодека                     : S_TEXT/UTF8
Идентификатор кодека/Информация          : UTF-8 Plain Text
Продолжительность                        : 1 ч. 50 м.
Битрейт                                  : 70 бит/сек
Count of elements                        : 1990
Размер потока                            : 56,8 Кбайт (0%)
Заголовок                                : English [SDH]
Язык                                     : English
Default                                  : Нет
Forced                                   : Нет
 
Текст #3
Идентификатор                            : 7
Формат                                   : UTF-8
Идентификатор кодека                     : S_TEXT/UTF8
Идентификатор кодека/Информация          : UTF-8 Plain Text
Продолжительность                        : 1 ч. 50 м.
Битрейт                                  : 63 бит/сек
Count of elements                        : 1792
Размер потока                            : 51,5 Кбайт (0%)
Заголовок                                : English
Язык                                     : English
Default                                  : Нет
Forced                                   : Нет

Этот торрент недоступен для скачивания без регистрации, однако доступен по публичной magnet-ссылке (источники с публичных трекеров). Перед использованием ссылки прочтите, пожалуйста Пользовательское соглашение, а также как можно дольше оставайтесь на раздаче! Для того, чтобы скачать сам торрент-файл (который видит больше источников), а также для того, чтобы поблагодарить релизера, вам необходимо зарегистрироваться. Если регистрироваться лень - вы можете также попробовать скачать релиз по нашим партнерским ссылкам ниже. Кроме того, зарегистрированным пользователям не показывается всплывающая реклама при скачивании.

[underver.se].t208880.torrent
Трекер: Зарегистрирован   [ 27.05.2021 22:30 ]  
Статус: проверено (by makkol at 27.05.2021 22:31)
Поблагодарили: пока никто не поблагодарил...
Тип торрента: публичный - доступные источники с открытых трекеров: 
Размер: 8.14 GB (занимает 1.86 DVDR, для записи нужно 2 болванки DVDR/RW)
 
 

Яндекс.Метрика powered by Sphinx


В Н И М А Н И Е
Сайт не распространяет и не хранит электронные версии произведений, а лишь бесплатно и без коммерческой выгоды (не требуя взамен платы,
SMS и т.д.) предоставляет доступ к создаваемому пользователями каталогу ссылок на торрент-файлы, которые содержат только списки хеш-сумм.
Убедительная просьба с жалобами обращаться напрямую к пользователю, разместившему торрент файл.

Вверх