Loading...
Error

Девятаев (Тимур Бекмамбетов, Сергей Трофимов) [2021 г., военный, биография, драма, история, WEB-DL 1080p]

Статистика раздачи
Размер:  4,61 GB   |    Зарегистрирован:  3 дня   |    Скачан:  91 раз
Сидов:  28  |  4 MB/s  ]   Личеров:  43  |  18 MB/s  ]

* - сиды/пиры с внешних источников

   
 
Автор Сообщение

makkol Пол:Муж

10-Июн-2021 21:13

Девятаев
«Уйдем по небу!»


Год выпуска: 2021
Жанр: военный, биография, драма, история
Производство: Россия [Военфильм, Базелевс Продакшн]
Режиссер: Тимур Бекмамбетов, Сергей Трофимов
В ролях: Павел Прилучный, Павел Чинарёв, Евгений Серзин, Дарья Златопольская, Дмитрий Лысенков, Тимофей Трибунцев, Алексей Филимонов, Олег Чугунов, Никита Кологривый, Антон Ксенев
Сюжет фильма:
Вторая Мировая война, лето 1944 года. Советский союз начал наступательную операцию на Третий рейх. Во время воздушного боя летчик-испытатель Михаил Девятаев выпрыгнул из горящего самолёта, попал в плен. По указу военного времени, всех советских пленных на Родине, по возвращению ждал расстрел. Летчик попал на остров Узедом. Но ему дали выбор, он может опять подняться в воздух, но уже на стороне врага или отправиться в конц. лагерь. Но Михаил выбрал третий путь, побег, на новейшей немецкой разработке вражеском бомбардировщике с «оружием возмездия»...

  • Российская премьера: 29 апреля 2021


Качество видео: WEB-DL 1080p

Продолжительность: 01:45:56
Формат: MKV
Видео: MPEG-4 AVC, 1920x1080 (16:9), 25.000 fps, 6144 kbps
Аудио: русский, оригинал, AAC 2.0, 48 kHz, 128 kbps

Релиз:

Код:

Общее
Уникальный идентификатор                 : 66797463041311392926074406533862810092 (0x3240B932946C2F594A4086890B9461EC)
Полное имя                               : Devyatayev.2021.1080p.KION.WEB-DL.AAC2.0.H.264-EniaHD.mkv
Формат                                   : Matroska
Версия формата                           : Version 4
Размер файла                             : 4,61 Гбайт
Продолжительность                        : 1 ч. 45 м.
Общий поток                              : 6229 Кбит/сек
Программа кодирования                    : mkvmerge v57.0.0 ('Till The End') 64-bit
Библиотека кодирования                   : libebml v1.4.2 + libmatroska v1.6.4

Видео
Идентификатор                            : 1
Формат                                   : AVC
Формат/Информация                        : Advanced Video Codec
Профиль формата                          : Baseline@L4
Настройки формата                        : 2 Ref Frames
Параметр CABAC формата                   : Нет
Параметр RefFrames формата               : 2 кадра
Параметр GOP формата                     : M=1, N=25
Идентификатор кодека                     : V_MPEG4/ISO/AVC
Продолжительность                        : 1 ч. 45 м.
Вид битрейта                             : Постоянный
Битрейт                                  : 6144 Кбит/сек
Ширина                                   : 1920 пикселей
Высота                                   : 1080 пикселей
Соотношение сторон                       : 16:9
Режим частоты кадров                     : Постоянный
Частота кадров                           : 25,000 кадров/сек
Цветовое пространство                    : YUV
Субдискретизация насыщенности            : 4:2:0
Битовая глубина                          : 8 бит
Тип развёртки                            : Прогрессивная
Бит/(Пиксели*Кадры)                      : 0.119
Размер потока                            : 4,51 Гбайт (98%)
Default                                  : Да
Forced                                   : Нет

Аудио
Идентификатор                            : 2
Формат                                   : AAC LC
Формат/Информация                        : Advanced Audio Codec Low Complexity
Идентификатор кодека                     : A_AAC-2
Продолжительность                        : 1 ч. 45 м.
Битрейт                                  : 128 Кбит/сек
Каналы                                   : 2 канала
ChannelLayout                            : L R
Частота                                  : 48,0 КГц
Частота кадров                           : 46,875 кадров/сек (1024 SPF)
Метод сжатия                             : С потерями
Размер потока                            : 97,0 Мбайт (2%)
Язык                                     : Russian
Default                                  : Да
Forced                                   : Нет

Этот торрент недоступен для скачивания без регистрации, однако доступен по публичной magnet-ссылке (источники с публичных трекеров). Перед использованием ссылки прочтите, пожалуйста Пользовательское соглашение, а также как можно дольше оставайтесь на раздаче! Для того, чтобы скачать сам торрент-файл (который видит больше источников), а также для того, чтобы поблагодарить релизера, вам необходимо зарегистрироваться. Если регистрироваться лень - вы можете также попробовать скачать релиз по нашим партнерским ссылкам ниже. Кроме того, зарегистрированным пользователям не показывается всплывающая реклама при скачивании.

[underver.se].t210179.torrent
Трекер: Зарегистрирован   [ 10.06.2021 21:13 ]  

Статус: проверено (by makkol at 10.06.2021 21:13)
Поблагодарили: 3 человека
Тип торрента: публичный - доступные источники с открытых трекеров: 
Размер: 4,61 GB (занимает 1,05 DVDR, для записи нужно 2 болванки DVDR/RW)
 
 
Похожие темы
Форум Тема Автор Торрент Отв. Посл. сооб.
Наше кино [DVDRip, Low-Res HDRip, и т.д.] Девятаев (Тимур Бекмамбетов, Сергей Трофимов) [2021 г., боевик, драма, военный, биографический, исторический, вов, WEB-DLRip-AVC] eXtatik
416 | 19

0 | 389

45

11.06.2021 07:03

Наше кино [DVDRip, Low-Res HDRip, и т.д.] Девятаев (Тимур Бекмамбетов, Сергей Трофимов) [2021 г., военный, биография, драма, история, WEB-DLRip] makkol
4398 | 227

1 | 239

33

14.06.2021 09:37

T Новинки кино [CAMRip, TS, DVDScr, WP, TC] Девятаев (Тимур Бекмамбетов, Сергей Трофимов) [2021 г., военный, биография, драма, история, TS 720p] makkol
159 | 1

0 | 1754

110

04.05.2021 21:12


Яндекс.Метрика powered by Sphinx


В Н И М А Н И Е
Сайт не распространяет и не хранит электронные версии произведений, а лишь бесплатно и без коммерческой выгоды (не требуя взамен платы,
SMS и т.д.) предоставляет доступ к создаваемому пользователями каталогу ссылок на торрент-файлы, которые содержат только списки хеш-сумм.
Убедительная просьба с жалобами обращаться напрямую к пользователю, разместившему торрент файл.

Вверх