Loading...
Error

Неспящие / Awake (Марк Расо) [2021 г., фантастика, боевик, триллер, драма, приключения, WEB-DLRip] Dub (VSI Moscow) + Sub (Rus, Ukr)

Статистика раздачи
Размер:  1,45 GB   |    Зарегистрирован:  3 дня   |    Скачан:  19 раз
Сидов:  4  |  262 KB/s  ]   Личеров:  0  |  0 KB/s  ]

* - сиды/пиры с внешних источников

   
 
Автор Сообщение

makkol Пол:Муж

10-Июн-2021 21:39

Неспящие / Awake


Год выпуска: 2021
Жанр: фантастика, боевик, триллер, драма, приключения
Производство: США [Aurum Producciones S.A., Netflix, Paul Schiff Productions]
Режиссер: Марк Расо
В ролях: Джина Родригес, Ариана Гринблатт, Фрэнсис Фишер, Дженнифер Джейсон Ли, Барри Пеппер, Шамир Андерсон, Финн Джонс, Люсиус Хойос, Гил Беллоуз, Себастьян Пижотт
Сюжет фильма:
В результате глобальной катастрофы перестают работать электронные приборы и люди теряют способность спать. Мир погружается в хаос. Только у Джилл, бывшей военнослужащей с непростым прошлым, возможно, есть ключ к спасению - ее собственная дочь.

  • Мировая премьера: 9 июня 2021


Качество видео: WEB-DLRip

Продолжительность: 01:37:21
Формат: AVI
Видео: XviD, 704x352 (2.00:1), 24.000 fps, 1679 kbps
Аудио: русский, дублированный (VSI Moscow), AC3 5.1, 48 kHz, 448 kbps
Субтитры: русские (форсированные, полные), украинские (форсированные, полные) внешние

Релиз:

Код:

Общее
Полное имя                               : Awake.2021.NF.WEB-DLRip.1.45Gb.MegaPeer.avi
Формат                                   : AVI
Формат/Информация                        : Audio Video Interleave
Размер файла                             : 1,45 Гбайт
Продолжительность                        : 1 ч. 37 м.
Общий поток                              : 2 137 Кбит/сек
Программа кодирования                    : VirtualDubModRus 1.5.10.2 (build 2542/release)
Библиотека кодирования                   : VirtualDubMod build 2542/release

Видео
Идентификатор                            : 0
Формат                                   : MPEG-4 Visual
Профиль формата                          : Advanced Simple@L5
Настройки формата                        : BVOP1 / Custom Matrix
Параметр BVOP формата                    : 1
Параметр QPel формата                    : Нет
Параметр GMC формата                     : Без точки перехода
Параметр матрицы формата                 : Выборочная
Идентификатор кодека                     : XVID
Идентификатор кодека/Подсказка           : XviD
Продолжительность                        : 1 ч. 37 м.
Битрейт                                  : 1 679 Кбит/сек
Ширина                                   : 704 пикселя
Высота                                   : 352 пикселя
Соотношение сторон                       : 2,000
Частота кадров                           : 24,000 кадра/сек
Цветовое пространство                    : YUV
Субдискретизация насыщенности            : 4:2:0
Битовая глубина                          : 8 бит
Тип развёртки                            : Прогрессивная
Метод сжатия                             : С потерями
Бит/(Пиксели*Кадры)                      : 0.282
Размер потока                            : 1,14 Гбайт (79%)
Библиотека кодирования                   : XviD 73

Аудио
Идентификатор                            : 1
Формат                                   : AC-3
Формат/Информация                        : Audio Coding 3
Коммерческое название                    : Dolby Digital
Идентификатор кодека                     : 2000
Продолжительность                        : 1 ч. 37 м.
Вид битрейта                             : Постоянный
Битрейт                                  : 448 Кбит/сек
Каналы                                   : 6 каналов
Channel layout                           : L R C LFE Ls Rs
Частота                                  : 48,0 КГц
Частота кадров                           : 31,250 кадров/сек (1536 SPF)
Метод сжатия                             : С потерями
Размер потока                            : 312 Мбайт (21%)
Выравнивание                             : Разделение по промежуткам
Продолжительность промежутка             : 42  мс. (1,00 видеокадр)
Время предзагрузки промежутка            : 500  мс.
Service kind                             : Complete Main

Этот торрент недоступен для скачивания без регистрации, однако доступен по публичной magnet-ссылке (источники с публичных трекеров). Перед использованием ссылки прочтите, пожалуйста Пользовательское соглашение, а также как можно дольше оставайтесь на раздаче! Для того, чтобы скачать сам торрент-файл (который видит больше источников), а также для того, чтобы поблагодарить релизера, вам необходимо зарегистрироваться. Если регистрироваться лень - вы можете также попробовать скачать релиз по нашим партнерским ссылкам ниже. Кроме того, зарегистрированным пользователям не показывается всплывающая реклама при скачивании.

[underver.se].t210181.torrent
Трекер: Зарегистрирован   [ 10.06.2021 21:39 ]  

Статус: проверено (by makkol at 10.06.2021 21:39)
Поблагодарили: пока никто не поблагодарил...
Тип торрента: публичный - доступные источники с открытых трекеров: 
Размер: 1,45 GB (занимает 1/3 DVDR, для записи нужно 1 болванка DVDR/RW)
 
 
Похожие темы
Форум Тема Автор Торрент Отв. Посл. сооб.
Зарубежное кино [DVDRip, Low-Res HDRip, и т.д.] Неспящие / Awake (Марк Расо) [2021 г., драма, боевик, приключения, WEB-DLRip] DUB (VSI Moscow), Sub (Rus/Eng/Ukr ) Renesans
93 | 5

0 | 188

8

10.06.2021 06:01

Зарубежное кино [HDDVDRip / BDRip / WEB-DL / HDTV 1080/720р] Неспящие / Awake (Марк Расо) [2021 г., фантастика, боевик, триллер, драма, приключения, WEB-DL 1080p] Rus (Dub VSI Moscow) + Ukr (Dub) + Original + Sub makkol
543 | 40

0 | 215

17

10.06.2021 21:46


Яндекс.Метрика powered by Sphinx


В Н И М А Н И Е
Сайт не распространяет и не хранит электронные версии произведений, а лишь бесплатно и без коммерческой выгоды (не требуя взамен платы,
SMS и т.д.) предоставляет доступ к создаваемому пользователями каталогу ссылок на торрент-файлы, которые содержат только списки хеш-сумм.
Убедительная просьба с жалобами обращаться напрямую к пользователю, разместившему торрент файл.

Вверх