Loading...
Error

Сопротивление / Resistance (Хонатан Якубович) [2020, Драма, военный, биография, история, BDRip 720p] Dub (iTunes) + Original + Sub (Eng)

Статистика раздачи
Размер:  5,26 GB   |    Зарегистрирован:  3 дня   |    Скачан:  1 раз

Полного источника не было: 1 день 20 часов

Сидов:  0  |  0 KB/s  ]   Личеров:  0  |  0 KB/s  ]

* - сиды/пиры с внешних источников

   
 
Автор Сообщение

Konin Пол:Муж

10-Июн-2021 21:51

Сопротивление / Resistance
«Поставить на кон свою жизнь ради спасения детей»
Год выхода: 2020
Страна: Великобритания, Франция, Германия, США
Студия: Bliss Media, Epicentral Studios, Ingenious Media, Pantaleon Films, Riverstone Pictures, Rocket Science, Vertical Media
Жанр: Драма, военный, биография, история
Продолжительность: 02:01:20
Перевод: Профессиональный (полное дублирование) | iTunes
Режиссер:
Хонатан Якубович
В ролях:
Джесси Айзенберг, Клеманс Поэзи, Феликс Моати, Вица Керекеш, Маттиас Швайгхёфер, Геза Рёриг, Эд Харрис, Белла Рэмси, Марта Иссова, Карл Маркович
Описание:
После оккупации Франции нацистами начинающий мим Марсель Марсо, пытаясь добиться расположения красавицы Эммы, вступает в ряды Сопротивления. Там он берется провернуть опасную операцию: спасти группу еврейских сирот из рук нацистов, переправив их через горы и леса Швейцарии.

Качество: BDRip 720p
Формат: MKV
Видео: MPEG-4 AVC, 1280x536, 5179 Kbit/s, 23.976 fps
Аудио #01: 48 kHz, AC3, 5.1, 384 Kbps | iTunes | RUS |
Аудио #02: 48 kHz, AC3, 5.1, 640 Kbps | Оригинал | ENG |
Субтитры: Английские
General
Unique ID : 128104270150368616774911907196309100195 (0x605FFC283748737C107B7076217856A3)
Complete name : F:VideoResistance.2020.BDRip.720p.seleZen.mkv
Format : Matroska
Format version : Version 4
File size : 5.26 GiB
Duration : 2 h 1 min
Overall bit rate : 6 204 kb/s
Movie name : Resistance 2020 from seleZen
Encoded date : UTC 2021-06-10 11:29:14
Writing application : mkvmerge v55.0.0 ('Waiting For Space') 64-bit
Writing library : libebml v1.4.2 + libmatroska v1.6.4
Video
ID : 1
Format : AVC
Format/Info : Advanced Video Codec
Format profile : High@L4.1
Format settings : CABAC / 12 Ref Frames
Format settings, CABAC : Yes
Format settings, Reference : 12 frames
Codec ID : V_MPEG4/ISO/AVC
Duration : 2 h 1 min
Bit rate : 5 179 kb/s
Width : 1 280 pixels
Height : 536 pixels
Display aspect ratio : 2.40:1
Frame rate mode : Constant
Frame rate : 23.976 (24000/1001) FPS
Color space : YUV
Chroma subsampling : 4:2:0
Bit depth : 8 bits
Scan type : Progressive
Bits/(Pixel*Frame) : 0.315
Stream size : 4.39 GiB (83%)
Title : playHD
Writing library : x264 core 144 r2525 40bb568
Encoding settings : cabac=1 / ref=12 / deblock=1:-3:-3 / analyse=0x3:0x133 / me=umh / subme=10 / psy=1 / psy_rd=1.00:0.00 / mixed_ref=1 / me_range=32 / chroma_me=1 / trellis=2 / 8x8dct=1 / cqm=0 / deadzone=21,11 / fast_pskip=0 / chroma_qp_offset=-2 / threads=12 / lookahead_threads=2 / sliced_threads=0 / nr=0 / decimate=0 / interlaced=0 / bluray_compat=0 / constrained_intra=0 / bframes=9 / b_pyramid=2 / b_adapt=2 / b_bias=0 / direct=3 / weightb=1 / open_gop=0 / weightp=2 / keyint=250 / keyint_min=23 / scenecut=40 / intra_refresh=0 / rc=crf / mbtree=0 / crf=15.3 / qcomp=0.60 / qpmin=0 / qpmax=69 / qpstep=4 / ip_ratio=1.30 / pb_ratio=1.20 / aq=3:0.85
Language : English
Default : Yes
Forced : No
Audio #1
ID : 2
Format : AC-3
Format/Info : Audio Coding 3
Commercial name : Dolby Digital
Codec ID : A_AC3
Duration : 2 h 1 min
Bit rate mode : Constant
Bit rate : 384 kb/s
Channel(s) : 6 channels
Channel layout : L R C LFE Ls Rs
Sampling rate : 48.0 kHz
Frame rate : 31.250 FPS (1536 SPF)
Compression mode : Lossy
Stream size : 333 MiB (6%)
Title : iTunes
Language : Russian
Service kind : Complete Main
Default : Yes
Forced : Yes
Audio #2
ID : 3
Format : AC-3
Format/Info : Audio Coding 3
Commercial name : Dolby Digital
Codec ID : A_AC3
Duration : 2 h 1 min
Bit rate mode : Constant
Bit rate : 640 kb/s
Channel(s) : 6 channels
Channel layout : L R C LFE Ls Rs
Sampling rate : 48.0 kHz
Frame rate : 31.250 FPS (1536 SPF)
Compression mode : Lossy
Stream size : 556 MiB (10%)
Title : Original
Language : English
Service kind : Complete Main
Default : No
Forced : No
Text
ID : 4
Format : UTF-8
Codec ID : S_TEXT/UTF8
Codec ID/Info : UTF-8 Plain Text
Duration : 1 h 51 min
Bit rate : 32 b/s
Count of elements : 996
Stream size : 26.8 KiB (0%)
Title : Full
Language : English
Default : No
Forced : No
Menu
00:00:00.000 : en:Chapter 01
00:10:10.193 : en:Chapter 02
00:22:19.964 : en:Chapter 03
00:32:50.302 : en:Chapter 04
00:40:27.175 : en:Chapter 05
00:51:29.920 : en:Chapter 06
01:00:17.239 : en:Chapter 07
01:12:19.669 : en:Chapter 08
01:21:58.038 : en:Chapter 09
01:33:52.377 : en:Chapter 10
01:46:57.119 : en:Chapter 11
01:55:20.330 : en:Chapter 12
Релиз:

Этот торрент недоступен для скачивания без регистрации, однако доступен по публичной magnet-ссылке (источники с публичных трекеров). Перед использованием ссылки прочтите, пожалуйста Пользовательское соглашение, а также как можно дольше оставайтесь на раздаче! Для того, чтобы скачать сам торрент-файл (который видит больше источников), а также для того, чтобы поблагодарить релизера, вам необходимо зарегистрироваться. Если регистрироваться лень - вы можете также попробовать скачать релиз по нашим партнерским ссылкам ниже. Кроме того, зарегистрированным пользователям не показывается всплывающая реклама при скачивании.

[underver.se].t210185.torrent
Трекер: Зарегистрирован   [ 10.06.2021 21:51 ]  

Статус: проверено (by makkol at 11.06.2021 22:08)
Поблагодарили: пока никто не поблагодарил...
Тип торрента: публичный - доступные источники с открытых трекеров: 
Размер: 5,26 GB (занимает 1,2 DVDR, для записи нужно 2 болванки DVDR/RW)
 
 
Похожие темы
Форум Тема Автор Торрент Отв. Посл. сооб.
Зарубежное кино [DVDRip, Low-Res HDRip, и т.д.] Сопротивление воздуха / La resistance de l'air (Фред Гривуа) [2015 г., драма, HDRip] DVO + Original makkol
1 | 0

0 | 1108

16

22.03.2016 23:29

T Зарубежное кино [DVDRip, Low-Res HDRip, и т.д.] Сопротивления банкира / Der Bankier des Widerstands / Bankier van het Verzet (Йорам Люрсен) [2018 г., драма, военный, WEB-DLRip] MVO (Синема УС) makkol
1 | 0

0 | 763

17

14.09.2018 11:08

T Зарубежное кино [DVDRip, Low-Res HDRip, и т.д.] Сопротивления банкира / Der Bankier des Widerstands / Bankier van het Verzet (Йорам Люрсен) [2018 г., драма, военный, WEB-DLRip] MVO (Синема УС) makkol
0 | 0

0 | 786

6

14.09.2018 11:13

Зарубежное кино [DVDRip, Low-Res HDRip, и т.д.] Сопротивление / Resistance (Хонатан Якубович) [2020, Драма, военный, биография, история, BDRip] Dub (IVI) + Sub (Eng) Konin
34 | 2

0 | 158

6

06.06.2021 09:29

Зарубежное кино [DVDRip, Low-Res HDRip, и т.д.] Сопротивление / Resistance (Хонатан Якубович) [2020, Драма, военный, биография, история, BDRip] Dub (IVI) + Sub (Eng) Konin
73 | 3

0 | 152

5

06.06.2021 09:28

Зарубежное кино [DVDRip, Low-Res HDRip, и т.д.] Сопротивление / Resistance (Хонатан Якубович) [2020, Драма, военный, биография, история, BDRip] Dub (iTunes) + Sub (Eng) Konin
70 | 3

0 | 80

3

10.06.2021 21:50

Зарубежное кино [DVDRip, Low-Res HDRip, и т.д.] Сопротивление / Resistance (Хонатан Якубович) [2020, Драма, военный, биография, история, BDRip] Dub (iTunes) + Sub (Eng) Konin
21 | 1

0 | 69

3

10.06.2021 21:51

Зарубежное кино [DVD / HDDVD / BD / Remux] Сопротивление / Resistance (Хонатан Якубович) [2020, Драма, военный, биография, история, BDRemux 1080p] Dub (iTunes) + Original + Sub (Eng) Konin
21 | 3

0 | 91

2

10.06.2021 21:52

% Зарубежное кино [HDDVDRip / BDRip / WEB-DL / HDTV 1080/720р] Сопротивление воздуха / La resistance de l'air (Фред Гривуа) [2015 г., драма, BDRip 1080p] MVO 90ytr90
1 | 0

0 | 559

6

19.02.2017 15:36

T Зарубежное кино [HDDVDRip / BDRip / WEB-DL / HDTV 1080/720р] Сопротивления банкира / Der Bankier des Widerstands / Bankier van het Verzet (Йорам Люрсен) [2018 г., драма, военный, WEB-DL 720p] MVO (Синема УС) makkol
0 | 2

0 | 1309

9

14.09.2018 11:19


Яндекс.Метрика powered by Sphinx


В Н И М А Н И Е
Сайт не распространяет и не хранит электронные версии произведений, а лишь бесплатно и без коммерческой выгоды (не требуя взамен платы,
SMS и т.д.) предоставляет доступ к создаваемому пользователями каталогу ссылок на торрент-файлы, которые содержат только списки хеш-сумм.
Убедительная просьба с жалобами обращаться напрямую к пользователю, разместившему торрент файл.

Вверх