Loading...
Error

Выбор Фредерика Фитцелла / The Education of Fredrick Fitzell / Flashback (Кристофер МакБрайд) [2020 г., драма, триллер, BDRip 720p] DVO (Pazl Voice) + Original

Статистика раздачи
Размер:  4,47 GB   |    Зарегистрирован:  3 дня   |    Скачан:  1 раз

Полного источника не было: 1 день 16 часов

Сидов:  0  |  0 KB/s  ]   Личеров:  0  |  0 KB/s  ]

* - сиды/пиры с внешних источников

   
 
Автор Сообщение

makkol Пол:Муж

10-Июн-2021 21:58

Выбор Фредерика Фитцелла / The Education of Fredrick Fitzell / Flashback


Год выпуска: 2020
Жанр: драма, триллер
Производство: Канада [Addictive Pictures, Resolute Films and Entertainment, Trinity Media Financing]
Режиссер: Кристофер МакБрайд
В ролях: Дилан О`Брайен, Майка Монро, Аманда Бругел, Ханна Гросс, Кейр Гилкрист, Эмори Коэн, Сима Фишер, Аарон Пул, Джош Круддас, Лииса Репо-Мартелл, Йен Мэтьюз, Майка Харпер, Лэндон Норрис, Хершел Блатт
Сюжет фильма:
Приходит день, когда мы должны сделать выбор. Стабильность или воплощение заветной мечты? Работа в крупной корпорации, семья или свобода творчества? Как тут не ошибиться? Фред Фитцелл оказывается во вневременном пространстве своего прошлого и будущего, где ему придется сделать выбор.

  • Мировая премьера: 8 октября 2020
  • Российская премьера: 3 июня 2021


Качество видео: BDRip 720p

Продолжительность: 01:37:34
Формат: MKV
Видео: MPEG-4 AVC, 1280x538 (2.40:1), 23.976 fps, 5475 kbps
Аудио #1: русский, любительский двухголосый закадровый (Pazl Voice), AC3 5.1, 48 kHz, 448 kbps
Аудио #2: английский, оригинал, AC3 5.1, 48 kHz, 640 kbps
Субтитры: английские вшитые отключаемые

Код:

General
Unique ID : 170455061061720672212585066868279848732 (0x803C735C4C65D76CBBAA1275E07BAF1C)
Complete name : Flashback.2020.720p.BluRay.DD5.1.x264.mkv
Format : Matroska
Format version : Version 4 / Version 2
File size : 4.47 GiB
Duration : 1 h 37 min
Overall bit rate : 6 565 kb/s
Encoded date : UTC 2021-06-09 13:34:07
Writing application : mkvmerge v57.0.0 ('Till The End') 32-bit
Writing library : libebml v1.4.2 + libmatroska v1.6.4

Video
ID : 1
Format : AVC
Format/Info : Advanced Video Codec
Format profile : High@L4.1
Format settings, CABAC : Yes
Format settings, RefFrames : 12 frames
Codec ID : V_MPEG4/ISO/AVC
Duration : 1 h 37 min
Bit rate : 5 475 kb/s
Width : 1 280 pixels
Height : 538 pixels
Display aspect ratio : 2.40:1
Frame rate mode : Constant
Frame rate : 23.976 (24000/1001) FPS
Color space : YUV
Chroma subsampling : 4:2:0
Bit depth : 8 bits
Scan type : Progressive
Bits/(Pixel*Frame) : 0.332
Stream size : 3.73 GiB (83%)
Writing library : x264 core 161 r3048+58M ~ Encoded by Mocunaman in Portugal
Encoding settings : cabac=1 / ref=12 / deblock=1:-3:-3 / analyse=0x3:0x113 / me=umh / subme=10 / psy=1 / fade_compensate=0.00 / psy_rd=1.00:0.00 / mixed_ref=1 / me_range=32 / chroma_me=1 / trellis=2 / 8x8dct=1 / cqm=0 / deadzone=21,11 / fast_pskip=0 / chroma_qp_offset=-2 / threads=17 / lookahead_threads=4 / sliced_threads=0 / nr=0 / decimate=0 / interlaced=0 / bluray_compat=0 / constrained_intra=0 / fgo=0 / bframes=16 / b_pyramid=2 / b_adapt=2 / b_bias=0 / direct=3 / weightb=1 / open_gop=0 / weightp=2 / keyint=250 / keyint_min=23 / scenecut=40 / intra_refresh=0 / rc_lookahead=60 / rc=crf / mbtree=0 / crf=17.0000 / qcomp=0.60 / qpmin=0:0:0 / qpmax=69:69:69 / qpstep=4 / vbv_maxrate=62500 / vbv_bufsize=78125 / crf_max=0.0 / nal_hrd=none / filler=0 / ip_ratio=1.30 / pb_ratio=1.20 / aq=3:0.85 / aq-sensitivity=10.00 / aq-factor=1.00:1.00:1.00 / aq2=0 / aq3=0 / zones=0,1320,crf=15/1368,3029,crf=16/4536,4859,crf=16/5889,6087,crf=15/6481,7249,crf=16.5/9115,9456,crf=15/9881,10233,crf=15/10234,12242,crf=15/13372,13930,crf=16/17153,19515,crf=16.5/22307,22525,crf=16/22685,22845,crf=16/22947,31843,crf=16/32563,35533,crf=16/35696,36261,crf=16/38515,41531,crf=15/42203,53709,crf=16/54153,65186,crf=16/67250,95618,crf=16/101546,101973,crf=16/107997,110053,crf=16/111181,126830,crf=16/130542,132318,crf=16/132558,140376,crf=19
Language : English
Default : Yes
Forced : No
Color range : Limited
Color primaries : BT.709
Transfer characteristics : BT.709
Matrix coefficients : BT.709

Audio #1
ID : 2
Format : AC-3
Format/Info : Audio Coding 3
Format settings, Endianness : Big
Codec ID : A_AC3
Duration : 1 h 37 min
Bit rate mode : Constant
Bit rate : 448 kb/s
Channel(s) : 6 channels
Channel positions : Front: L C R, Side: L R, LFE
Sampling rate : 48.0 kHz
Frame rate : 31.250 FPS (1536 SPF)
Bit depth : 16 bits
Compression mode : Lossy
Stream size : 313 MiB (7%)
Title : Pazl Voice
Language : Russian
Service kind : Complete Main
Default : Yes
Forced : No

Audio #2
ID : 3
Format : AC-3
Format/Info : Audio Coding 3
Format settings, Endianness : Big
Codec ID : A_AC3
Duration : 1 h 37 min
Bit rate mode : Constant
Bit rate : 640 kb/s
Channel(s) : 6 channels
Channel positions : Front: L C R, Side: L R, LFE
Sampling rate : 48.0 kHz
Frame rate : 31.250 FPS (1536 SPF)
Bit depth : 16 bits
Compression mode : Lossy
Stream size : 447 MiB (10%)
Language : English
Service kind : Complete Main
Default : No
Forced : No

Text #1
ID : 4
Format : UTF-8
Codec ID : S_TEXT/UTF8
Codec ID/Info : UTF-8 Plain Text
Duration : 8 s 175 ms
Bit rate : 46 b/s
Count of elements : 2
Stream size : 48.0 Bytes (0%)
Title : Forced
Language : English
Default : No
Forced : No

Text #2
ID : 5
Format : UTF-8
Codec ID : S_TEXT/UTF8
Codec ID/Info : UTF-8 Plain Text
Duration : 1 h 30 min
Bit rate : 29 b/s
Count of elements : 714
Stream size : 19.4 KiB (0%)
Title : Full
Language : English
Default : No
Forced : No

Text #3
ID : 6
Format : UTF-8
Codec ID : S_TEXT/UTF8
Codec ID/Info : UTF-8 Plain Text
Duration : 1 h 30 min
Bit rate : 36 b/s
Count of elements : 943
Stream size : 24.4 KiB (0%)
Title : SDH
Language : English
Default : No
Forced : No

Menu
00:00:00.000 : Chapter 01
00:05:02.886 : Chapter 02
00:11:01.494 : Chapter 03
00:17:24.377 : Chapter 04
00:22:37.898 : Chapter 05
00:29:05.035 : Chapter 06
00:33:10.322 : Chapter 07
00:37:20.155 : Chapter 08
00:44:24.954 : Chapter 09
00:48:38.916 : Chapter 10
00:53:47.850 : Chapter 11
01:03:08.702 : Chapter 12
01:08:55.214 : Chapter 13
01:14:11.989 : Chapter 14
01:23:46.188 : Chapter 15
01:28:09.910 : Chapter 16

Этот торрент недоступен для скачивания без регистрации, однако доступен по публичной magnet-ссылке (источники с публичных трекеров). Перед использованием ссылки прочтите, пожалуйста Пользовательское соглашение, а также как можно дольше оставайтесь на раздаче! Для того, чтобы скачать сам торрент-файл (который видит больше источников), а также для того, чтобы поблагодарить релизера, вам необходимо зарегистрироваться. Если регистрироваться лень - вы можете также попробовать скачать релиз по нашим партнерским ссылкам ниже. Кроме того, зарегистрированным пользователям не показывается всплывающая реклама при скачивании.

[underver.se].t210188.torrent
Трекер: Зарегистрирован   [ 10.06.2021 21:58 ]  

Статус: проверено (by makkol at 10.06.2021 21:59)
Поблагодарили: пока никто не поблагодарил...
Тип торрента: публичный - доступные источники с открытых трекеров: 
Размер: 4,47 GB (занимает 1,02 DVDR, для записи нужно 2 болванки DVDR/RW)
 
 
Похожие темы
Форум Тема Автор Торрент Отв. Посл. сооб.
Зарубежное кино [HDDVDRip / BDRip / WEB-DL / HDTV 1080/720р] Выбор Фредерика Фитцелла / The Education of Fredrick Fitzell / Flashback (Кристофер МакБрайд) [2020 г., драма, триллер, BDRip 1080p] DVO (Pazl Voice) + AVO (BadBajo) + Original makkol
26 | 5

0 | 116

5

10.06.2021 22:05


Яндекс.Метрика powered by Sphinx


В Н И М А Н И Е
Сайт не распространяет и не хранит электронные версии произведений, а лишь бесплатно и без коммерческой выгоды (не требуя взамен платы,
SMS и т.д.) предоставляет доступ к создаваемому пользователями каталогу ссылок на торрент-файлы, которые содержат только списки хеш-сумм.
Убедительная просьба с жалобами обращаться напрямую к пользователю, разместившему торрент файл.

Вверх