Loading...
Error

Выбор Фредерика Фитцелла / The Education of Fredrick Fitzell / Flashback (Кристофер МакБрайд) [2020 г., драма, триллер, BDRip 1080p] DVO (Pazl Voice) + AVO (BadBajo) + Original

Статистика раздачи
Размер:  8,55 GB   |    Зарегистрирован:  3 дня   |    Скачан:  5 раз
Сидов:  2  |  2 KB/s  ]   Личеров:  1  |  0 KB/s  ]

* - сиды/пиры с внешних источников

   
 
Автор Сообщение

makkol Пол:Муж

10-Июн-2021 22:05

Выбор Фредерика Фитцелла / The Education of Fredrick Fitzell / Flashback


Год выпуска: 2020
Жанр: драма, триллер
Производство: Канада [Addictive Pictures, Resolute Films and Entertainment, Trinity Media Financing]
Режиссер: Кристофер МакБрайд
В ролях: Дилан О`Брайен, Майка Монро, Аманда Бругел, Ханна Гросс, Кейр Гилкрист, Эмори Коэн, Сима Фишер, Аарон Пул, Джош Круддас, Лииса Репо-Мартелл, Йен Мэтьюз, Майка Харпер, Лэндон Норрис, Хершел Блатт
Сюжет фильма:
Приходит день, когда мы должны сделать выбор. Стабильность или воплощение заветной мечты? Работа в крупной корпорации, семья или свобода творчества? Как тут не ошибиться? Фред Фитцелл оказывается во вневременном пространстве своего прошлого и будущего, где ему придется сделать выбор.

  • Мировая премьера: 8 октября 2020
  • Российская премьера: 3 июня 2021


Качество видео: BDRip 1080p

Продолжительность: 01:37:34
Формат: MKV
Видео: MPEG-4 AVC, 1920x808 (2.40:1), 23.976 fps, 10.8 Mbps
Аудио #1: русский, любительский двухголосый закадровый (Pazl Voice), AC3 5.1, 48 kHz, 448 kbps
Аудио #2: русский, авторский одноголосый (A. Важенин (BadBajo)), AC3 5.1, 48 kHz, 640 kbps
Аудио #3: английский, оригинал, AC3 5.1, 48 kHz, 640 kbps
Субтитры: английские вшитые отключаемые

Релиз:

Код:

Общее
Уникальный идентификатор : 130332610018177547252727231424231225851 (0x620D25CB8006F995A1A63F9D2E1DB9FB)
Полное имя : Flashback.2020.BDRip.1080p.KinoPub.mkv
Формат : Matroska
Версия формата : Version 4
Размер файла : 8,55 Гбайт
Продолжительность : 1 ч. 37 м.
Общий поток : 12,5 Мбит/сек
Название фильма : Flashback.2020.BDRip.1080p.KinoPub
Дата кодирования : UTC 2021-06-08 08:54:30
Программа кодирования : mkvmerge v53.0.0 ('Fool's Gold') 64-bit
Библиотека кодирования : libebml v1.4.1 + libmatroska v1.6.2

Видео
Идентификатор : 1
Формат : AVC
Формат/Информация : Advanced Video Codec
Профиль формата : High@L4.1
Настройки формата : CABAC / 5 Ref Frames
Параметр CABAC формата : Да
Параметр RefFrames формата : 5 кадров
Идентификатор кодека : V_MPEG4/ISO/AVC
Продолжительность : 1 ч. 37 м.
Битрейт : 10,8 Мбит/сек
Ширина : 1 920 пикселей
Высота : 808 пикселей
Соотношение сторон : 2,40:1
Режим частоты кадров : Постоянный
Частота кадров : 23,976 (24000/1001) кадра/сек
Цветовое пространство : YUV
Субдискретизация насыщенности : 4:2:0
Битовая глубина : 8 бит
Тип развёртки : Прогрессивная
Бит/(Пиксели*Кадры) : 0.290
Размер потока : 7,36 Гбайт (86%)
Библиотека кодирования : x264 core 157 r2938 2b00a84 TnP@MTeam Mod
Настройки программы : cabac=1 / ref=5 / deblock=1:-3:-3 / analyse=0x3:0x133 / me=umh / subme=10 / psy=1 / psy_rd=1.05:0.00 / mixed_ref=1 / me_range=32 / chroma_me=1 / trellis=2 / 8x8dct=1 / cqm=0 / deadzone=21,11 / fast_pskip=0 / chroma_qp_offset=-2 / threads=12 / lookahead_threads=2 / sliced_threads=0 / nr=0 / decimate=0 / interlaced=0 / bluray_compat=0 / constrained_intra=0 / bframes=8 / b_pyramid=2 / b_adapt=2 / b_bias=0 / direct=3 / weightb=1 / open_gop=0 / weightp=2 / keyint=250 / keyint_min=24 / scenecut=40 / intra_refresh=0 / rc_lookahead=250 / rc=crf / mbtree=0 / crf=16.8 / qcomp=0.60 / qpmin=0 / qpmax=69 / qpstep=4 / vbv_maxrate=62500 / vbv_bufsize=78125 / crf_max=0.0 / nal_hrd=none / filler=0 / ip_ratio=1.30 / pb_ratio=1.20 / aq=3:0.80
Язык : English
Default : Да
Forced : Нет
Цветовой диапазон : Limited
Основные цвета : BT.709
Коэффициенты матрицы : BT.709

Аудио #1
Идентификатор : 2
Формат : AC-3
Формат/Информация : Audio Coding 3
Коммерческое название : Dolby Digital
Идентификатор кодека : A_AC3
Продолжительность : 1 ч. 37 м.
Вид битрейта : Постоянный
Битрейт : 448 Кбит/сек
Каналы : 6 каналов
Channel layout : L R C LFE Ls Rs
Частота : 48,0 КГц
Частота кадров : 31,250 кадров/сек (1536 SPF)
Метод сжатия : С потерями
Размер потока : 313 Мбайт (4%)
Заголовок : [DVO] Pazl Voice | KinoPub
Язык : Russian
Service kind : Complete Main
Default : Да
Forced : Нет

Аудио #2
Идентификатор : 3
Формат : AC-3
Формат/Информация : Audio Coding 3
Коммерческое название : Dolby Digital
Идентификатор кодека : A_AC3
Продолжительность : 1 ч. 37 м.
Вид битрейта : Постоянный
Битрейт : 640 Кбит/сек
Каналы : 6 каналов
Channel layout : L R C LFE Ls Rs
Частота : 48,0 КГц
Частота кадров : 31,250 кадров/сек (1536 SPF)
Метод сжатия : С потерями
Размер потока : 447 Мбайт (5%)
Заголовок : [AVO] BadBajo
Язык : Russian
Service kind : Complete Main
Default : Нет
Forced : Нет

Аудио #3
Идентификатор : 4
Формат : AC-3
Формат/Информация : Audio Coding 3
Коммерческое название : Dolby Digital
Идентификатор кодека : A_AC3
Продолжительность : 1 ч. 37 м.
Вид битрейта : Постоянный
Битрейт : 640 Кбит/сек
Каналы : 6 каналов
Channel layout : L R C LFE Ls Rs
Частота : 48,0 КГц
Частота кадров : 31,250 кадров/сек (1536 SPF)
Метод сжатия : С потерями
Размер потока : 447 Мбайт (5%)
Язык : English
Service kind : Complete Main
Default : Нет
Forced : Нет

Текст
Идентификатор : 5
Формат : PGS
Режим смешивания : zlib
Идентификатор кодека : S_HDMV/PGS
Идентификатор кодека/Информация : Picture based subtitle format used on BDs/HD-DVDs
Продолжительность : 1 ч. 30 м.
Битрейт : 22,8 Кбит/сек
Count of elements : 1890
Размер потока : 14,8 Мбайт (0%)
Язык : English
Default : Нет
Forced : Нет

Меню
00:00:00.000 : en:Chapter 01
00:05:02.886 : en:Chapter 02
00:11:01.494 : en:Chapter 03
00:17:24.377 : en:Chapter 04
00:22:37.898 : en:Chapter 05
00:29:05.035 : en:Chapter 06
00:33:10.322 : en:Chapter 07
00:37:20.155 : en:Chapter 08
00:44:24.954 : en:Chapter 09
00:48:38.916 : en:Chapter 10
00:53:47.850 : en:Chapter 11
01:03:08.702 : en:Chapter 12
01:08:55.214 : en:Chapter 13
01:14:11.989 : en:Chapter 14
01:23:46.188 : en:Chapter 15
01:28:09.910 : en:Chapter 16

Этот торрент недоступен для скачивания без регистрации, однако доступен по публичной magnet-ссылке (источники с публичных трекеров). Перед использованием ссылки прочтите, пожалуйста Пользовательское соглашение, а также как можно дольше оставайтесь на раздаче! Для того, чтобы скачать сам торрент-файл (который видит больше источников), а также для того, чтобы поблагодарить релизера, вам необходимо зарегистрироваться. Если регистрироваться лень - вы можете также попробовать скачать релиз по нашим партнерским ссылкам ниже. Кроме того, зарегистрированным пользователям не показывается всплывающая реклама при скачивании.

[underver.se].t210192.torrent
Трекер: Зарегистрирован   [ 10.06.2021 22:05 ]  

Статус: проверено (by makkol at 10.06.2021 22:05)
Поблагодарили: пока никто не поблагодарил...
Тип торрента: публичный - доступные источники с открытых трекеров: 
Размер: 8,55 GB (занимает 1,95 DVDR, для записи нужно 2 болванки DVDR/RW)
 
 
Похожие темы
Форум Тема Автор Торрент Отв. Посл. сооб.
Зарубежное кино [HDDVDRip / BDRip / WEB-DL / HDTV 1080/720р] Выбор Фредерика Фитцелла / The Education of Fredrick Fitzell / Flashback (Кристофер МакБрайд) [2020 г., драма, триллер, BDRip 720p] DVO (Pazl Voice) + Original makkol
21 | 3

0 | 79

1

10.06.2021 21:58


Яндекс.Метрика powered by Sphinx


В Н И М А Н И Е
Сайт не распространяет и не хранит электронные версии произведений, а лишь бесплатно и без коммерческой выгоды (не требуя взамен платы,
SMS и т.д.) предоставляет доступ к создаваемому пользователями каталогу ссылок на торрент-файлы, которые содержат только списки хеш-сумм.
Убедительная просьба с жалобами обращаться напрямую к пользователю, разместившему торрент файл.

Вверх