Loading...
Error

Никто / Nobody (Илья Найшуллер) [2021 г., боевик, триллер, криминал, WEB-DL 720p] Dub (iTunes) + MVO (HDRezka Studio) + 2xAVO (Есарев, Яроцкий) + Original + Sub

Статистика раздачи
Размер:  4,97 GB   |    Зарегистрирован:  3 дня   |    Скачан:  5 раз
Сидов:  2  |  59 KB/s  ]   Личеров:  1  |  0 KB/s  ]

* - сиды/пиры с внешних источников

   
 
Автор Сообщение

makkol Пол:Муж

10-Июн-2021 22:40

Никто / Nobody
«Не стоит его недооценивать»


Год выпуска: 2021
Жанр: боевик, триллер, криминал
Производство: США [87North, Eighty Two Films, Odenkirk Provissiero Entertainment]
Режиссер: Илья Найшуллер
В ролях: Боб Оденкёрк, Алексей Серебряков, Конни Нильсен, Кристофер Ллойд, Майкл Айронсайд, Колин Сэлмон, RZA, Билли Маклеллан, Арая Менгеша, Гейдж Манро
Сюжет фильма:
Непримечательный и незаметный человек живёт обычной жизнью, пока однажды, спасая женщину от нападения бандитов, не отправляет одного из хулиганов в больницу. Лишь позже он узнаёт, что это был брат влиятельного гангстера, который теперь жаждет мести.

  • Мировая премьера: 18 марта 2021
  • Российская премьера: 18 марта 2021


Качество видео: WEB-DL 720p

Продолжительность: 01:31:40
Формат: MKV
Видео: MPEG-4 AVC, 1248x520 (2.40:1), 23.976 fps, 4943 kbps
Аудио #1: русский, дублированный (iTunes), AC3 5.1, 48 kHz, 384 kbps
Аудио #2: русский, профессиональный многоголосый закадровый (HDRezka Studio), AC3 5.1, 48 kHz, 448 kbps - с цензурой
Аудио #3: русский, профессиональный многоголосый закадровый (HDRezka Studio), AC3 5.1, 48 kHz, 448 kbps - без цензузы
Аудио #4: русский, авторский одноголосый (Д. Есарев), AC3 5.1, 48 kHz, 448 kbps - без цензузы
Аудио #5: русский, авторский одноголосый (М. Яроцкий), AC3 5.1, 48 kHz, 448 kbps - без цензузы
Аудио #6: английский, оригинал, E-AC3 5.1, 48 kHz, 640 kbps
Субтитры: русские (Forced HDR, full), английские (Forced, SDH) (вшитые на русскую речь!))

Код:

Общее
Уникальный идентификатор : 334156699041023626434334107657557077818 (0xFB643D41756BA3840E7F3A407F356F3A)
Полное имя : Nobody.2021.WEB-DL.720p_Gateberg.mkv
Формат : Matroska
Версия формата : Version 4
Размер файла : 4,97 Гбайт
Продолжительность : 1 ч. 31 м.
Общий поток : 7 763 Кбит/сек
Название фильма : Nobody.2021.WEB-DL.720p_Gateberg
Дата кодирования : UTC 2021-06-09 14:07:37
Программа кодирования : mkvmerge v53.0.0 ('Fool's Gold') 64-bit
Библиотека кодирования : libebml v1.4.1 + libmatroska v1.6.2

Видео
Идентификатор : 1
Формат : AVC
Формат/Информация : Advanced Video Codec
Профиль формата : High@L3.1
Настройки формата : CABAC / 4 Ref Frames
Параметр CABAC формата : Да
Параметр RefFrames формата : 4 кадра
Идентификатор кодека : V_MPEG4/ISO/AVC
Продолжительность : 1 ч. 31 м.
Вид битрейта : Постоянный
Битрейт : 4 943 Кбит/сек
Номинальный битрейт : 6 000 Кбит/сек
Ширина : 1 248 пикселей
Высота : 520 пикселей
Соотношение сторон : 2,40:1
Режим частоты кадров : Постоянный
Частота кадров : 23,976 (24000/1001) кадра/сек
Цветовое пространство : YUV
Субдискретизация насыщенности : 4:2:0
Битовая глубина : 8 бит
Тип развёртки : Прогрессивная
Бит/(Пиксели*Кадры) : 0.318
Размер потока : 3,17 Гбайт (64%)
Default : Да
Forced : Нет
Цветовой диапазон : Limited
Основные цвета : BT.709
Характеристики трансфера : BT.709
Коэффициенты матрицы : BT.709

Аудио #1
Идентификатор : 2
Формат : AC-3
Формат/Информация : Audio Coding 3
Коммерческое название : Dolby Digital
Идентификатор кодека : A_AC3
Продолжительность : 1 ч. 31 м.
Вид битрейта : Постоянный
Битрейт : 384 Кбит/сек
Каналы : 6 каналов
Channel layout : L R C LFE Ls Rs
Частота : 48,0 КГц
Частота кадров : 31,250 кадров/сек (1536 SPF)
Метод сжатия : С потерями
Размер потока : 252 Мбайт (5%)
Заголовок : [DUB] Пифагор
Язык : Russian
Service kind : Complete Main
Default : Да
Forced : Нет

Аудио #2
Идентификатор : 3
Формат : AC-3
Формат/Информация : Audio Coding 3
Коммерческое название : Dolby Digital
Идентификатор кодека : A_AC3
Продолжительность : 1 ч. 31 м.
Вид битрейта : Постоянный
Битрейт : 448 Кбит/сек
Каналы : 6 каналов
Channel layout : L R C LFE Ls Rs
Частота : 48,0 КГц
Частота кадров : 31,250 кадров/сек (1536 SPF)
Метод сжатия : С потерями
Размер потока : 294 Мбайт (6%)
Заголовок : HDRezka Studio (Censored)
Язык : Russian
Service kind : Complete Main
Default : Нет
Forced : Нет

Аудио #3
Идентификатор : 4
Формат : AC-3
Формат/Информация : Audio Coding 3
Коммерческое название : Dolby Digital
Идентификатор кодека : A_AC3
Продолжительность : 1 ч. 31 м.
Вид битрейта : Постоянный
Битрейт : 448 Кбит/сек
Каналы : 6 каналов
Channel layout : L R C LFE Ls Rs
Частота : 48,0 КГц
Частота кадров : 31,250 кадров/сек (1536 SPF)
Метод сжатия : С потерями
Размер потока : 294 Мбайт (6%)
Заголовок : HDRezka Studio (Uncensored)
Язык : Russian
Service kind : Complete Main
Default : Нет
Forced : Нет

Аудио #4
Идентификатор : 5
Формат : AC-3
Формат/Информация : Audio Coding 3
Коммерческое название : Dolby Digital
Идентификатор кодека : A_AC3
Продолжительность : 1 ч. 31 м.
Вид битрейта : Постоянный
Битрейт : 448 Кбит/сек
Каналы : 6 каналов
Channel layout : L R C LFE Ls Rs
Частота : 48,0 КГц
Частота кадров : 31,250 кадров/сек (1536 SPF)
Метод сжатия : С потерями
Размер потока : 294 Мбайт (6%)
Заголовок : [AVO] Есарев (Uncensored)
Язык : Russian
Service kind : Complete Main
Default : Нет
Forced : Нет

Аудио #5
Идентификатор : 6
Формат : AC-3
Формат/Информация : Audio Coding 3
Коммерческое название : Dolby Digital
Идентификатор кодека : A_AC3
Продолжительность : 1 ч. 31 м.
Вид битрейта : Постоянный
Битрейт : 448 Кбит/сек
Каналы : 6 каналов
Channel layout : L R C LFE Ls Rs
Частота : 48,0 КГц
Частота кадров : 31,250 кадров/сек (1536 SPF)
Метод сжатия : С потерями
Размер потока : 294 Мбайт (6%)
Заголовок : [AVO] Яроцкий (Uncensored)
Язык : Russian
Service kind : Complete Main
Default : Нет
Forced : Нет

Аудио #6
Идентификатор : 7
Формат : E-AC-3
Формат/Информация : Enhanced AC-3
Коммерческое название : Dolby Digital Plus
Идентификатор кодека : A_EAC3
Продолжительность : 1 ч. 31 м.
Вид битрейта : Постоянный
Битрейт : 640 Кбит/сек
Каналы : 6 каналов
Channel layout : L R C LFE Ls Rs
Частота : 48,0 КГц
Частота кадров : 31,250 кадров/сек (1536 SPF)
Метод сжатия : С потерями
Размер потока : 420 Мбайт (8%)
Заголовок : Original
Язык : English
Service kind : Complete Main
Default : Нет
Forced : Нет

Текст #1
Идентификатор : 8
Формат : UTF-8
Идентификатор кодека : S_TEXT/UTF8
Идентификатор кодека/Информация : UTF-8 Plain Text
Продолжительность : 1 ч. 29 м.
Битрейт : 3 бит/сек
Count of elements : 68
Размер потока : 2,41 Кбайт (0%)
Заголовок : HDRezka Studio
Язык : Russian
Default : Нет
Forced : Нет

Текст #2
Идентификатор : 9
Формат : UTF-8
Идентификатор кодека : S_TEXT/UTF8
Идентификатор кодека/Информация : UTF-8 Plain Text
Продолжительность : 1 ч. 28 м.
Битрейт : 51 бит/сек
Count of elements : 805
Размер потока : 33,3 Кбайт (0%)
Заголовок : FOCS (Uncensored)
Язык : Russian
Default : Нет
Forced : Нет

Текст #3
Идентификатор : 10
Формат : UTF-8
Идентификатор кодека : S_TEXT/UTF8
Идентификатор кодека/Информация : UTF-8 Plain Text
Продолжительность : 1 ч. 26 м.
Битрейт : 28 бит/сек
Count of elements : 740
Размер потока : 18,1 Кбайт (0%)
Заголовок : Forced
Язык : English
Default : Нет
Forced : Нет

Текст #4
Идентификатор : 11
Формат : UTF-8
Идентификатор кодека : S_TEXT/UTF8
Идентификатор кодека/Информация : UTF-8 Plain Text
Продолжительность : 1 ч. 31 м.
Битрейт : 48 бит/сек
Count of elements : 1329
Размер потока : 32,4 Кбайт (0%)
Заголовок : SDH
Язык : English
Default : Нет
Forced : Нет

Этот торрент недоступен для скачивания без регистрации, однако доступен по публичной magnet-ссылке (источники с публичных трекеров). Перед использованием ссылки прочтите, пожалуйста Пользовательское соглашение, а также как можно дольше оставайтесь на раздаче! Для того, чтобы скачать сам торрент-файл (который видит больше источников), а также для того, чтобы поблагодарить релизера, вам необходимо зарегистрироваться. Если регистрироваться лень - вы можете также попробовать скачать релиз по нашим партнерским ссылкам ниже. Кроме того, зарегистрированным пользователям не показывается всплывающая реклама при скачивании.

[underver.se].t210198.torrent
Трекер: Зарегистрирован   [ 10.06.2021 22:40 ]  

Статус: проверено (by makkol at 10.06.2021 22:42)
Поблагодарили: 1 человек
Тип торрента: публичный - доступные источники с открытых трекеров: 
Размер: 4,97 GB (занимает 1,14 DVDR, для записи нужно 2 болванки DVDR/RW)
 
 
Похожие темы
Форум Тема Автор Торрент Отв. Посл. сооб.
T Зарубежное кино [DVDRip, Low-Res HDRip, и т.д.] Никто / Nobody (Илья Найшуллер) [2021 г., боевик, триллер, криминал, WEB-DLRip] Dub (Line) makkol
719 | 5

0 | 762

73

15.04.2021 22:00

T Зарубежное кино [DVDRip, Low-Res HDRip, и т.д.] Никто / Nobody (Илья Найшуллер) [2021 г., боевик, триллер, криминал, WEB-DLRip] MVO (За бутылку) eXtatik
200 | 7

1 | 674

43

19.04.2021 05:47

Зарубежное кино [DVDRip, Low-Res HDRip, и т.д.] Никто / Nobody (Илья Найшуллер) [2021 г., боевик, триллер, криминал, WEB-DLRip] MVO (HDRezka Studio) + Sub makkol
2062 | 12

0 | 611

42

20.04.2021 21:36

Зарубежное кино [DVDRip, Low-Res HDRip, и т.д.] Никто / Nobody (Илья Найшуллер) [2021 г., боевик, триллер, криминал, WEB-DLRip] Dub (iTunes) + hardsub (Rus, Eng) eXtatik
348 | 10

0 | 176

11

10.06.2021 05:37

T Зарубежное кино [HDDVDRip / BDRip / WEB-DL / HDTV 1080/720р] Никто / Nobody (Илья Найшуллер) [2020 г., боевик, триллер, криминал, WEB-DL 1080p] Dub (Line) makkol
15 | 0

1 | 752

89

18.04.2021 11:22

Зарубежное кино [HDDVDRip / BDRip / WEB-DL / HDTV 1080/720р] Никто / Nobody (Илья Найшуллер) [2021 г., боевик, криминальный, триллер, WEB-DLRip 1080p] 2 х MVO (HDRezka Studio) + Original (Eng) + Sub (Rus, eng) bosom
3 | 0

3 | 515

40

20.04.2021 12:14

Зарубежное кино [HDDVDRip / BDRip / WEB-DL / HDTV 1080/720р] Никто / Nobody (Илья Найшуллер) [2021 г., боевик, триллер, криминал, WEB-DL 720p] MVO (HDRezka Studio) + Original + Sub makkol
1961 | 43

0 | 1561

73

20.04.2021 21:45

Зарубежное кино [HDDVDRip / BDRip / WEB-DL / HDTV 1080/720р] Никто / Nobody (Илья Найшуллер) [2021 г., боевик, триллер, криминал, WEB-DL 1080p] Dub (iTunes) + MVO (HDRezka Studio) + 2xAVO (Есарев, Яроцкий) + Original + Sub makkol
482 | 61

0 | 138

10

10.06.2021 22:48

Зарубежное кино [HDDVDRip / BDRip / WEB-DL / HDTV 1080/720р] Никто / Nobody (Илья Найшуллер) [2021 г., боевик, триллер, криминал, WEB-DL 2160p HDR] Dub (iTunes) + MVO (HDRezka Studio) + 2xAVO (Есарев, Яроцкий) + Original + Sub makkol
151 | 45

0 | 166

10

10.06.2021 22:55

T Новинки кино [CAMRip, TS, DVDScr, WP, TC] Никто / Nobody (Илья Найшуллер) [2021 г., боевик, триллер, криминал, TS 720p] Dub makkol
54 | 0

0 | 2123

82

23.03.2021 21:59


Яндекс.Метрика powered by Sphinx


В Н И М А Н И Е
Сайт не распространяет и не хранит электронные версии произведений, а лишь бесплатно и без коммерческой выгоды (не требуя взамен платы,
SMS и т.д.) предоставляет доступ к создаваемому пользователями каталогу ссылок на торрент-файлы, которые содержат только списки хеш-сумм.
Убедительная просьба с жалобами обращаться напрямую к пользователю, разместившему торрент файл.

Вверх