Loading...
Error

Никто / Nobody (Илья Найшуллер) [2021 г., боевик, триллер, криминал, WEB-DL 2160p HDR] Dub (iTunes) + MVO (HDRezka Studio) + 2xAVO (Есарев, Яроцкий) + Original + Sub

Статистика раздачи
Размер:  11.36 GB   |    Зарегистрирован:  1 год 3 месяца   |    Скачан:  21 раз
Сидов:  1  |  0 KB/s  ]   Личеров:  0  |  0 KB/s  ]

* - сиды/пиры с внешних источников

   
 
Автор Сообщение

makkol Пол:Муж

10-Июн-2021 22:55

Никто / Nobody
«Не стоит его недооценивать»


Год выпуска: 2021
Жанр: боевик, триллер, криминал
Производство: США [87North, Eighty Two Films, Odenkirk Provissiero Entertainment]
Режиссер: Илья Найшуллер
В ролях: Боб Оденкёрк, Алексей Серебряков, Конни Нильсен, Кристофер Ллойд, Майкл Айронсайд, Колин Сэлмон, RZA, Билли Маклеллан, Арая Менгеша, Гейдж Манро
Сюжет фильма:
Непримечательный и незаметный человек живёт обычной жизнью, пока однажды, спасая женщину от нападения бандитов, не отправляет одного из хулиганов в больницу. Лишь позже он узнаёт, что это был брат влиятельного гангстера, который теперь жаждет мести.

  • Мировая премьера: 18 марта 2021
  • Российская премьера: 18 марта 2021


Качество видео: WEB-DL 2160p

Продолжительность: 01:31:40
Формат: MKV
Видео: HEVC HDR10+, 3840x1600 (2.40:1), 23.976 fps, 14.9 Mbps
Аудио #1: русский, дублированный (iTunes), AC3 5.1, 48 kHz, 384 kbps
Аудио #2: русский, авторский одноголосый (Д. Есарев), AC3 5.1, 48 kHz, 448 kbps - без цензузы
Аудио #3: русский, авторский одноголосый (М. Яроцкий), AC3 5.1, 48 kHz, 448 kbps - без цензузы
Аудио #4: русский, профессиональный многоголосый закадровый (HDRezka Studio), AC3 5.1, 48 kHz, 448 kbps - с цензурой
Аудио #5: русский, профессиональный многоголосый закадровый (HDRezka Studio), AC3 5.1, 48 kHz, 448 kbps - без цензузы
Аудио #6: английский, оригинал, E-AC3 5.1, 48 kHz, 640 kbps
Субтитры: русские (Forced, 2 x full), английские

Релиз:

Код:

General
Unique ID : 219218981842646169359009713920780947113 (0xA4EC0A47540B1C217C71A424B8624EA9)
Complete name : Nobody.2021.DUB.AVO.MVO.WEB-DL.2160p.HDR.seleZen.mkv
Format : Matroska
Format version : Version 4
File size : 11.4 GiB
Duration : 1 h 31 min
Overall bit rate : 17.7 Mb/s
Movie name : Nobody 2021 from seleZen
Encoded date : UTC 2021-06-09 23:22:57
Writing application : mkvmerge v55.0.0 ('Waiting For Space') 64-bit
Writing library : libebml v1.4.2 + libmatroska v1.6.4

Video
ID : 1
Format : HEVC
Format/Info : High Efficiency Video Coding
Format profile : Main [email protected]@Main
HDR format : SMPTE ST 2094 App 4, Version 1, HDR10+ Profile B compatible
Codec ID : V_MPEGH/ISO/HEVC
Duration : 1 h 31 min
Bit rate : 14.9 Mb/s
Width : 3 840 pixels
Height : 1 600 pixels
Display aspect ratio : 2.40:1
Frame rate mode : Constant
Frame rate : 23.976 (24000/1001) FPS
Color space : YUV
Chroma subsampling : 4:2:0
Bit depth : 10 bits
Bits/(Pixel*Frame) : 0.101
Stream size : 9.55 GiB (84%)
Language : English
Default : Yes
Forced : No
Color range : Limited
Color primaries : BT.2020
Transfer characteristics : PQ
Matrix coefficients : BT.2020 non-constant
Mastering display color pri : Display P3
Mastering display luminance : min: 0.0050 cd/m2, max: 1000 cd/m2
Maximum Content Light Level : 1000 cd/m2
Maximum Frame-Average Light : 312 cd/m2

Audio #1
ID : 2
Format : AC-3
Format/Info : Audio Coding 3
Commercial name : Dolby Digital
Codec ID : A_AC3
Duration : 1 h 31 min
Bit rate mode : Constant
Bit rate : 384 kb/s
Channel(s) : 6 channels
Channel layout : L R C LFE Ls Rs
Sampling rate : 48.0 kHz
Frame rate : 31.250 FPS (1536 SPF)
Compression mode : Lossy
Stream size : 252 MiB (2%)
Title : Dub [iTunes]
Language : Russian
Service kind : Complete Main
Default : Yes
Forced : Yes

Audio #2
ID : 3
Format : AC-3
Format/Info : Audio Coding 3
Commercial name : Dolby Digital
Codec ID : A_AC3
Duration : 1 h 31 min
Bit rate mode : Constant
Bit rate : 448 kb/s
Channel(s) : 6 channels
Channel layout : L R C LFE Ls Rs
Sampling rate : 48.0 kHz
Frame rate : 31.250 FPS (1536 SPF)
Compression mode : Lossy
Stream size : 294 MiB (3%)
Title : AVO [Есарев] - Uncensored
Language : Russian
Service kind : Complete Main
Default : No
Forced : No

Audio #3
ID : 4
Format : AC-3
Format/Info : Audio Coding 3
Commercial name : Dolby Digital
Codec ID : A_AC3
Duration : 1 h 31 min
Bit rate mode : Constant
Bit rate : 448 kb/s
Channel(s) : 6 channels
Channel layout : L R C LFE Ls Rs
Sampling rate : 48.0 kHz
Frame rate : 31.250 FPS (1536 SPF)
Compression mode : Lossy
Stream size : 294 MiB (3%)
Title : AVO [Яроцкий] - Uncensored
Language : Russian
Service kind : Complete Main
Default : No
Forced : No

Audio #4
ID : 5
Format : AC-3
Format/Info : Audio Coding 3
Commercial name : Dolby Digital
Codec ID : A_AC3
Duration : 1 h 31 min
Bit rate mode : Constant
Bit rate : 448 kb/s
Channel(s) : 6 channels
Channel layout : L R C LFE Ls Rs
Sampling rate : 48.0 kHz
Frame rate : 31.250 FPS (1536 SPF)
Compression mode : Lossy
Stream size : 294 MiB (3%)
Title : MVO [HDRezka Studio (Censored)]
Language : Russian
Service kind : Complete Main
Default : No
Forced : No

Audio #5
ID : 6
Format : AC-3
Format/Info : Audio Coding 3
Commercial name : Dolby Digital
Codec ID : A_AC3
Duration : 1 h 31 min
Bit rate mode : Constant
Bit rate : 448 kb/s
Channel(s) : 6 channels
Channel layout : L R C LFE Ls Rs
Sampling rate : 48.0 kHz
Frame rate : 31.250 FPS (1536 SPF)
Compression mode : Lossy
Stream size : 294 MiB (3%)
Title : MVO [HDRezka Studio (Uncensored)]
Language : Russian
Service kind : Complete Main
Default : No
Forced : No

Audio #6
ID : 7
Format : E-AC-3
Format/Info : Enhanced AC-3
Commercial name : Dolby Digital Plus
Codec ID : A_EAC3
Duration : 1 h 31 min
Bit rate mode : Constant
Bit rate : 640 kb/s
Channel(s) : 6 channels
Channel layout : L R C LFE Ls Rs
Sampling rate : 48.0 kHz
Frame rate : 31.250 FPS (1536 SPF)
Compression mode : Lossy
Stream size : 420 MiB (4%)
Title : Original
Language : English
Service kind : Complete Main
Default : No
Forced : No

Text #1
ID : 8
Format : UTF-8
Codec ID : S_TEXT/UTF8
Codec ID/Info : UTF-8 Plain Text
Duration : 1 h 29 min
Bit rate : 3 b/s
Count of elements : 68
Stream size : 2.41 KiB (0%)
Title : Forced [HDRezka Studio]
Language : Russian
Default : No
Forced : No

Text #2
ID : 9
Format : UTF-8
Codec ID : S_TEXT/UTF8
Codec ID/Info : UTF-8 Plain Text
Duration : 1 h 29 min
Bit rate : 47 b/s
Count of elements : 660
Stream size : 31.3 KiB (0%)
Title : Full
Language : Russian
Default : No
Forced : No

Text #3
ID : 10
Format : UTF-8
Codec ID : S_TEXT/UTF8
Codec ID/Info : UTF-8 Plain Text
Duration : 1 h 28 min
Bit rate : 51 b/s
Count of elements : 805
Stream size : 33.3 KiB (0%)
Title : Full [FOCS (Uncensored)]
Language : Russian
Default : No
Forced : No

Text #4
ID : 11
Format : UTF-8
Codec ID : S_TEXT/UTF8
Codec ID/Info : UTF-8 Plain Text
Duration : 1 h 26 min
Bit rate : 28 b/s
Count of elements : 740
Stream size : 18.1 KiB (0%)
Title : Full
Language : English
Default : No
Forced : No

Text #5
ID : 12
Format : UTF-8
Codec ID : S_TEXT/UTF8
Codec ID/Info : UTF-8 Plain Text
Duration : 1 h 31 min
Bit rate : 48 b/s
Count of elements : 1329
Stream size : 32.4 KiB (0%)
Title : SDH
Language : English
Default : No
Forced : No

Этот торрент недоступен для скачивания без регистрации, однако доступен по публичной magnet-ссылке (источники с публичных трекеров). Перед использованием ссылки прочтите, пожалуйста Пользовательское соглашение, а также как можно дольше оставайтесь на раздаче! Для того, чтобы скачать сам торрент-файл (который видит больше источников), а также для того, чтобы поблагодарить релизера, вам необходимо зарегистрироваться. Если регистрироваться лень - вы можете также попробовать скачать релиз по нашим партнерским ссылкам ниже. Кроме того, зарегистрированным пользователям не показывается всплывающая реклама при скачивании.

[underver.se].t210200.torrent
Трекер: Зарегистрирован   [ 10.06.2021 22:55 ]  
Статус: проверено (by makkol at 10.06.2021 22:55)
Поблагодарили: пока никто не поблагодарил...
Тип торрента: публичный - доступные источники с открытых трекеров: 
Размер: 11.36 GB (занимает 2.59 DVDR, для записи нужно 3 болванки DVDR/RW)
 
 

Яндекс.Метрика powered by Sphinx


В Н И М А Н И Е
Сайт не распространяет и не хранит электронные версии произведений, а лишь бесплатно и без коммерческой выгоды (не требуя взамен платы,
SMS и т.д.) предоставляет доступ к создаваемому пользователями каталогу ссылок на торрент-файлы, которые содержат только списки хеш-сумм.
Убедительная просьба с жалобами обращаться напрямую к пользователю, разместившему торрент файл.

Вверх