Loading...
Error

Никто / Nobody (Илья Найшуллер) [2021, Боевик, триллер, криминал, BDRemux 1080p] Dub (iTunes) + MVO (HDRezka Studio) + 2xAVO (Есарев, Яроцкий) + Original + Sub (Rus/Eng)

Статистика раздачи
Размер:  21.48 GB   |    Зарегистрирован:  1 год 3 месяца   |    Скачан:  14 раз

Полного источника не было: 3 месяца 18 дней

Сидов:  0  |  0 KB/s  ]   Личеров:  0  |  0 KB/s  ]

* - сиды/пиры с внешних источников

   
 
Автор Сообщение

Konin Пол:Муж

17-Июн-2021 20:57

Никто / Nobody
«Не стоит его недооценивать»
Год выхода: 2021
Страна: США
Студия: 87North, Dentsu, Eighty Two Films, Odenkirk Provissiero Entertainment, Perfect World (Beijing) Pictures Co.
Жанр: Боевик, триллер, криминал
Продолжительность: 01:31:42
Перевод #1: Профессиональный (полное дублирование) | iTunes
Перевод #2: Профессиональный (многоголосый, закадровый) | HDrezka Studio (censored/uncensored)
Перевод #3: Авторский (одноголосый, закадровый) | Есарев
Перевод #4: Авторский (одноголосый, закадровый) | Яроцкий
Режиссер:
Илья Найшуллер
В ролях:
Боб Оденкёрк, Алексей Серебряков, Конни Нильсен, Кристофер Ллойд, Майкл Айронсайд, Колин Сэлмон, RZA, Билли Маклеллан, Арая Менгеша, Гейдж Манро
О фильме:
Непримечательный и незаметный человек живёт обычной жизнью, пока однажды, спасая женщину от нападения бандитов, не отправляет одного из хулиганов в больницу. Лишь позже он узнаёт, что это был брат влиятельного гангстера, который теперь жаждет мести.

Качество: BDRemux 1080p
Формат: MKV
Видео: MPEG-4 AVC, 1920x1080, 28.2 Mbit/s, 23.976 fps
Аудио #01: 48 kHz, AC3, 5.1, 384 Kbps | Дублированный | iTunes | RUS |
Аудио #02: 48 kHz, AC3, 5.1, 448 Kbps | Профессиональный многоголосый | HDRezka Studio (censored) | RUS |
Аудио #03: 48 kHz, AC3, 5.1, 448 Kbps | Профессиональный многоголосый | HDRezka Studio (uncensored) | RUS |
Аудио #04: 48 kHz, AC3, 5.1, 448 Kbps | Авторский | Есарев | RUS |
Аудио #05: 48 kHz, AC3, 5.1, 448 Kbps | Авторский | Яроцкий | RUS |
Аудио #06: 48 kHz, TrueHD, 7.1, 2697 Kbps | Оригинал | ENG |
Аудио #07: 48 kHz, AC3, 5.1, 448 Kbps | Оригинал | ENG |
Субтитры: Русские (Forced, 2 x full), английские
General
Unique ID : 191705192073743621055455832538507645878 (0x903913B5AD831300AD186513C66C13B6)
Complete name : F:VideoNobody.2021.D.MVO.AVO.BDREMUX.1080p.seleZen.mkv
Format : Matroska
Format version : Version 4
File size : 21.5 GiB
Duration : 1 h 31 min
Overall bit rate mode : Variable
Overall bit rate : 33.5 Mb/s
Movie name : Nobody 2021 from seleZen
Encoded date : UTC 2021-06-16 21:36:03
Writing application : mkvmerge v55.0.0 ('Waiting For Space') 64-bit
Writing library : libebml v1.4.2 + libmatroska v1.6.4
Video
ID : 1
Format : AVC
Format/Info : Advanced Video Codec
Format profile : [email protected]
Format settings : CABAC / 4 Ref Frames
Format settings, CABAC : Yes
Format settings, Reference : 4 frames
Codec ID : V_MPEG4/ISO/AVC
Duration : 1 h 31 min
Bit rate mode : Variable
Bit rate : 28.2 Mb/s
Maximum bit rate : 30.0 Mb/s
Width : 1 920 pixels
Height : 1 080 pixels
Display aspect ratio : 16:9
Frame rate mode : Constant
Frame rate : 23.976 (24000/1001) FPS
Color space : YUV
Chroma subsampling : 4:2:0
Bit depth : 8 bits
Scan type : Progressive
Bits/(Pixel*Frame) : 0.566
Stream size : 18.0 GiB (84%)
Language : English
Default : Yes
Forced : No
Audio #1
ID : 2
Format : AC-3
Format/Info : Audio Coding 3
Commercial name : Dolby Digital
Codec ID : A_AC3
Duration : 1 h 31 min
Bit rate mode : Constant
Bit rate : 384 kb/s
Channel(s) : 6 channels
Channel layout : L R C LFE Ls Rs
Sampling rate : 48.0 kHz
Frame rate : 31.250 FPS (1536 SPF)
Compression mode : Lossy
Stream size : 252 MiB (1%)
Title : Dub [iTunes]
Language : Russian
Service kind : Complete Main
Default : Yes
Forced : Yes
Audio #2
ID : 3
Format : AC-3
Format/Info : Audio Coding 3
Commercial name : Dolby Digital
Codec ID : A_AC3
Duration : 1 h 31 min
Bit rate mode : Constant
Bit rate : 448 kb/s
Channel(s) : 6 channels
Channel layout : L R C LFE Ls Rs
Sampling rate : 48.0 kHz
Frame rate : 31.250 FPS (1536 SPF)
Compression mode : Lossy
Stream size : 294 MiB (1%)
Title : MVO [HDRezka Studio] - censored
Language : Russian
Service kind : Complete Main
Default : No
Forced : No
Audio #3
ID : 4
Format : AC-3
Format/Info : Audio Coding 3
Commercial name : Dolby Digital
Codec ID : A_AC3
Duration : 1 h 31 min
Bit rate mode : Constant
Bit rate : 448 kb/s
Channel(s) : 6 channels
Channel layout : L R C LFE Ls Rs
Sampling rate : 48.0 kHz
Frame rate : 31.250 FPS (1536 SPF)
Compression mode : Lossy
Stream size : 294 MiB (1%)
Title : MVO [HDRezka Studio] - uncensored
Language : Russian
Service kind : Complete Main
Default : No
Forced : No
Audio #4
ID : 5
Format : AC-3
Format/Info : Audio Coding 3
Commercial name : Dolby Digital
Codec ID : A_AC3
Duration : 1 h 31 min
Bit rate mode : Constant
Bit rate : 448 kb/s
Channel(s) : 6 channels
Channel layout : L R C LFE Ls Rs
Sampling rate : 48.0 kHz
Frame rate : 31.250 FPS (1536 SPF)
Compression mode : Lossy
Stream size : 294 MiB (1%)
Title : AVO [Yesarev] -uncensored
Language : Russian
Service kind : Complete Main
Default : No
Forced : No
Audio #5
ID : 6
Format : AC-3
Format/Info : Audio Coding 3
Commercial name : Dolby Digital
Codec ID : A_AC3
Duration : 1 h 31 min
Bit rate mode : Constant
Bit rate : 448 kb/s
Channel(s) : 6 channels
Channel layout : L R C LFE Ls Rs
Sampling rate : 48.0 kHz
Frame rate : 31.250 FPS (1536 SPF)
Compression mode : Lossy
Stream size : 294 MiB (1%)
Title : AVO [kyberpunk] - uncensored
Language : Russian
Service kind : Complete Main
Default : No
Forced : No
Audio #6
ID : 7
Format : MLP FBA 16-ch
Format/Info : Meridian Lossless Packing FBA with 16-channel presentation
Commercial name : Dolby TrueHD with Dolby Atmos
Codec ID : A_TRUEHD
Duration : 1 h 31 min
Bit rate mode : Variable
Bit rate : 2 697 kb/s
Maximum bit rate : 4 788 kb/s
Channel(s) : 8 channels
Channel layout : L R C LFE Ls Rs Lb Rb
Sampling rate : 48.0 kHz
Frame rate : 1 200.000 FPS (40 SPF)
Compression mode : Lossless
Stream size : 1.73 GiB (8%)
Title : Original
Language : English
Default : No
Forced : No
Number of dynamic objects : 11
Bed channel count : 1 channel
Bed channel configuration : LFE
Audio #7
ID : 8
Format : AC-3
Format/Info : Audio Coding 3
Commercial name : Dolby Digital
Codec ID : A_AC3
Duration : 1 h 31 min
Bit rate mode : Constant
Bit rate : 448 kb/s
Channel(s) : 6 channels
Channel layout : L R C LFE Ls Rs
Sampling rate : 48.0 kHz
Frame rate : 31.250 FPS (1536 SPF)
Compression mode : Lossy
Stream size : 294 MiB (1%)
Language : English
Service kind : Complete Main
Default : No
Forced : No
Text #1
ID : 9
Format : UTF-8
Codec ID : S_TEXT/UTF8
Codec ID/Info : UTF-8 Plain Text
Duration : 1 h 29 min
Bit rate : 3 b/s
Count of elements : 68
Stream size : 2.41 KiB (0%)
Title : Forced [HDRezka Studio]
Language : Russian
Default : Yes
Forced : Yes
Text #2
ID : 10
Format : UTF-8
Codec ID : S_TEXT/UTF8
Codec ID/Info : UTF-8 Plain Text
Duration : 1 h 29 min
Bit rate : 47 b/s
Count of elements : 660
Stream size : 31.3 KiB (0%)
Title : Full
Language : Russian
Default : No
Forced : No
Text #3
ID : 11
Format : UTF-8
Codec ID : S_TEXT/UTF8
Codec ID/Info : UTF-8 Plain Text
Duration : 1 h 28 min
Bit rate : 51 b/s
Count of elements : 805
Stream size : 33.3 KiB (0%)
Title : Full [FOCS (Uncensored)]
Language : Russian
Default : No
Forced : No
Text #4
ID : 12
Format : UTF-8
Codec ID : S_TEXT/UTF8
Codec ID/Info : UTF-8 Plain Text
Duration : 1 h 26 min
Bit rate : 28 b/s
Count of elements : 740
Stream size : 18.1 KiB (0%)
Title : Full
Language : English
Default : No
Forced : No
Text #5
ID : 13
Format : UTF-8
Codec ID : S_TEXT/UTF8
Codec ID/Info : UTF-8 Plain Text
Duration : 1 h 31 min
Bit rate : 48 b/s
Count of elements : 1329
Stream size : 32.4 KiB (0%)
Title : SDH
Language : English
Default : No
Forced : No
Menu
00:00:00.000 : en:Just a Nobody
00:02:04.249 : en:Suburban Life
00:09:01.540 : en:Paternal Inadequacy
00:15:02.693 : en:Covert Counseling
00:19:18.198 : en:Seeking Revenge
00:24:56.286 : en:One Door Opens
00:32:15.933 : en:Reminiscing the Past
00:35:37.468 : en:Yulian
00:40:01.065 : en:Enraged Sibling
00:43:43.203 : en:Visiting the Barber
00:47:29.221 : en:Vengeful Intrusion
00:50:56.636 : en:Trunk Awakening
00:54:46.783 : en:Trust Me
00:57:32.073 : en:Living Room Confession
01:04:16.686 : en:New Management
01:06:54.844 : en:Storming Obshak
01:08:59.802 : en:Came for the Show
01:13:20.646 : en:Chasing Revenge
01:15:26.355 : en:Last Stand
01:21:05.569 : en:Everybody Dies
01:24:06.499 : en:Not Much of an Answer
01:26:16.963 : en:End Credits
Релиз:

Этот торрент недоступен для скачивания без регистрации, однако доступен по публичной magnet-ссылке (источники с публичных трекеров). Перед использованием ссылки прочтите, пожалуйста Пользовательское соглашение, а также как можно дольше оставайтесь на раздаче! Для того, чтобы скачать сам торрент-файл (который видит больше источников), а также для того, чтобы поблагодарить релизера, вам необходимо зарегистрироваться. Если регистрироваться лень - вы можете также попробовать скачать релиз по нашим партнерским ссылкам ниже. Кроме того, зарегистрированным пользователям не показывается всплывающая реклама при скачивании.

[underver.se].t210714.torrent
Трекер: Зарегистрирован   [ 17.06.2021 20:57 ]  
Статус: проверено (by Robbertta at 18.06.2021 10:51)
Поблагодарили: 1 человек
Тип торрента: публичный - доступные источники с открытых трекеров: 
Размер: 21.48 GB (занимает 4.91 DVDR, для записи нужно 5 болванок DVDR/RW)
 
 

Яндекс.Метрика powered by Sphinx


В Н И М А Н И Е
Сайт не распространяет и не хранит электронные версии произведений, а лишь бесплатно и без коммерческой выгоды (не требуя взамен платы,
SMS и т.д.) предоставляет доступ к создаваемому пользователями каталогу ссылок на торрент-файлы, которые содержат только списки хеш-сумм.
Убедительная просьба с жалобами обращаться напрямую к пользователю, разместившему торрент файл.

Вверх