Loading...
Error

(Rock & Roll) Браво - Московский бит & Стиляги из Москвы (1993) [FLAC (Tracks+.CUE), Lossless]

Статистика раздачи
Размер:  423 MB   |    Зарегистрирован:  4 года 1 месяц   |    Скачан:  3 раза
Сидов:  1  |  0 KB/s  ]   Личеров:  0  |  0 KB/s  ]

* - сиды/пиры с внешних источников

   
 
Автор Сообщение

Бишеп Пол:Муж

30-Авг-2012 11:50

Браво - Московский бит & Стиляги из Москвы

Жанр: Rock & Roll
Год выпуска: 1993
Источник: CD
Производитель диска: Sintez Records - SRCD-00010
Аудиокодек: FLAC
Тип рипа: Tracks+.CUE
Битрейт аудио: lossless
Продолжительность: 01:06:26


Треклист:
01. Московский бит
02. Стильный оранжевый галстук
03. Лунатик
04. Космический рок-н-ролл
05. Пусть не кончается дождь
06. Пилот 12-45
07. Как жаль
08. Рио
09. Заполярный твист
10. Вот и всё
11. Король ''Оранжевое Лето''
12. Звездный шейк
13. Вася
14. Скорый поезд
15. Мне грустно и легко
16. Добрый вечер Москва
17. Девчонка 16 лет
18. Я то что надо
19. Держись пижон
20. Черный кот
21. На танцплощадке

Код:

Exact Audio Copy V1.0 beta 3 from 29. August 2011

EAC extraction logfile from 7. August 2015, 14:23

Браво / Московский бит & Стиляги из Москвы

Used drive  : TSSTcorpCDDVDW SH-224DB   Adapter: 0  ID: 1

Read mode               : Secure
Utilize accurate stream : Yes
Defeat audio cache      : Yes
Make use of C2 pointers : No

Read offset correction                      : 6
Overread into Lead-In and Lead-Out          : No
Fill up missing offset samples with silence : Yes
Delete leading and trailing silent blocks   : No
Null samples used in CRC calculations       : Yes
Used interface                              : Installed external ASPI interface
Gap handling                                : Appended to previous track

Used output format              : User Defined Encoder
Selected bitrate                : 1024 kBit/s
Quality                         : High
Add ID3 tag                     : No
Command line compressor         : D:\Program Files\Foobar2000\encoders\flac.exe
Additional command line options :  -V -8 -T "Date=%year%" -T "Genre=%genre%" %source%

TOC of the extracted CD

     Track |   Start  |  Length  | Start sector | End sector
    ---------------------------------------------------------
        1  |  0:00.35 |  3:23.30 |        35    |    15289   
        2  |  3:23.65 |  3:26.05 |     15290    |    30744   
        3  |  6:49.70 |  3:23.00 |     30745    |    45969   
        4  | 10:12.70 |  2:19.45 |     45970    |    56439   
        5  | 12:32.40 |  3:24.55 |     56440    |    71794   
        6  | 15:57.20 |  2:16.20 |     71795    |    82014   
        7  | 18:13.40 |  3:40.45 |     82015    |    98559   
        8  | 21:54.10 |  3:08.20 |     98560    |   112679   
        9  | 25:02.30 |  2:33.25 |    112680    |   124179   
       10  | 27:35.55 |  4:13.08 |    124180    |   143162   
       11  | 31:48.63 |  3:40.65 |    143163    |   159727   
       12  | 35:29.53 |  3:09.35 |    159728    |   173937   
       13  | 38:39.13 |  3:19.42 |    173938    |   188904   
       14  | 41:58.55 |  3:38.60 |    188905    |   205314   
       15  | 45:37.40 |  3:22.03 |    205315    |   220467   
       16  | 48:59.43 |  2:59.27 |    220468    |   233919   
       17  | 51:58.70 |  3:18.33 |    233920    |   248802   
       18  | 55:17.28 |  3:56.42 |    248803    |   266544   
       19  | 59:13.70 |  2:22.53 |    266545    |   277247   
       20  | 61:36.48 |  2:54.25 |    277248    |   290322   
       21  | 64:30.73 |  1:54.50 |    290323    |   298922   

Track  1

     Filename D:\Desktop\Браво - Московский бит & Стиляги из Москвы (1993)\01. Московский бит.wav

     Pre-gap length  0:00:02.35

     Peak level 93.3 %
     Extraction speed 2.0 X
     Track quality 100.0 %
     Test CRC B06BE063
     Copy CRC B06BE063
     Accurately ripped (confidence 2)  [8A03F681]  (AR v2)
     Copy OK

Track  2

     Filename D:\Desktop\Браво - Московский бит & Стиляги из Москвы (1993)\02. Стильный оранжевый галстук.wav

     Pre-gap length  0:00:02.22

     Peak level 80.8 %
     Extraction speed 2.0 X
     Track quality 100.0 %
     Test CRC 04D88E8E
     Copy CRC 04D88E8E
     Accurately ripped (confidence 2)  [096F9A75]  (AR v2)
     Copy OK

Track  3

     Filename D:\Desktop\Браво - Московский бит & Стиляги из Москвы (1993)\03. Лунатик.wav

     Pre-gap length  0:00:02.20

     Peak level 81.4 %
     Extraction speed 2.0 X
     Track quality 100.0 %
     Test CRC CDEF1AC9
     Copy CRC CDEF1AC9
     Accurately ripped (confidence 2)  [4ECEC221]  (AR v2)
     Copy OK

Track  4

     Filename D:\Desktop\Браво - Московский бит & Стиляги из Москвы (1993)\04. Космический рок-н-ролл.wav

     Pre-gap length  0:00:02.17

     Peak level 73.0 %
     Extraction speed 1.9 X
     Track quality 100.0 %
     Test CRC EFEE1FF7
     Copy CRC EFEE1FF7
     Accurately ripped (confidence 2)  [6276A73D]  (AR v2)
     Copy OK

Track  5

     Filename D:\Desktop\Браво - Московский бит & Стиляги из Москвы (1993)\05. Пусть не кончается дождь.wav

     Pre-gap length  0:00:02.20

     Peak level 50.0 %
     Extraction speed 2.0 X
     Track quality 100.0 %
     Test CRC 763EB967
     Copy CRC 763EB967
     Accurately ripped (confidence 2)  [092A0D6E]  (AR v2)
     Copy OK

Track  6

     Filename D:\Desktop\Браво - Московский бит & Стиляги из Москвы (1993)\06. Пилот 12-45.wav

     Pre-gap length  0:00:02.27

     Peak level 86.2 %
     Extraction speed 1.9 X
     Track quality 100.0 %
     Test CRC 377D2E7B
     Copy CRC 377D2E7B
     Accurately ripped (confidence 2)  [6971D72C]  (AR v2)
     Copy OK

Track  7

     Filename D:\Desktop\Браво - Московский бит & Стиляги из Москвы (1993)\07. Как жаль.wav

     Pre-gap length  0:00:01.40

     Peak level 92.3 %
     Extraction speed 2.0 X
     Track quality 100.0 %
     Test CRC DC27F7B6
     Copy CRC DC27F7B6
     Accurately ripped (confidence 2)  [2087BAF1]  (AR v2)
     Copy OK

Track  8

     Filename D:\Desktop\Браво - Московский бит & Стиляги из Москвы (1993)\08. Рио.wav

     Pre-gap length  0:00:01.72

     Peak level 69.1 %
     Extraction speed 2.0 X
     Track quality 100.0 %
     Test CRC F08CEEF6
     Copy CRC F08CEEF6
     Accurately ripped (confidence 2)  [9D8AE1CF]  (AR v2)
     Copy OK

Track  9

     Filename D:\Desktop\Браво - Московский бит & Стиляги из Москвы (1993)\09. Заполярный твист.wav

     Pre-gap length  0:00:02.30

     Peak level 72.1 %
     Extraction speed 1.6 X
     Track quality 99.9 %
     Test CRC E3C1AA61
     Copy CRC E3C1AA61
     Accurately ripped (confidence 2)  [A5493E28]  (AR v2)
     Copy OK

Track 10

     Filename D:\Desktop\Браво - Московский бит & Стиляги из Москвы (1993)\10. Вот и всё.wav

     Pre-gap length  0:00:02.25

     Peak level 71.5 %
     Extraction speed 2.1 X
     Track quality 100.0 %
     Test CRC A3D65ECD
     Copy CRC A3D65ECD
     Accurately ripped (confidence 2)  [4B46ED24]  (AR v2)
     Copy OK

Track 11

     Filename D:\Desktop\Браво - Московский бит & Стиляги из Москвы (1993)\11. Король ''Оранжевое Лето''.wav

     Pre-gap length  0:00:02.28

     Peak level 81.4 %
     Extraction speed 2.0 X
     Track quality 100.0 %
     Test CRC 0777F538
     Copy CRC 0777F538
     Accurately ripped (confidence 2)  [17CAB4FC]  (AR v2)
     Copy OK

Track 12

     Filename D:\Desktop\Браво - Московский бит & Стиляги из Москвы (1993)\12. Звездный шейк.wav

     Pre-gap length  0:00:02.33

     Peak level 81.7 %
     Extraction speed 2.0 X
     Track quality 100.0 %
     Test CRC 7F52F46D
     Copy CRC 7F52F46D
     Accurately ripped (confidence 2)  [88B296E1]  (AR v2)
     Copy OK

Track 13

     Filename D:\Desktop\Браво - Московский бит & Стиляги из Москвы (1993)\13. Вася.wav

     Pre-gap length  0:00:02.30

     Peak level 79.2 %
     Extraction speed 1.8 X
     Track quality 99.9 %
     Test CRC ADBDC4F2
     Copy CRC ADBDC4F2
     Accurately ripped (confidence 2)  [F82A00FC]  (AR v2)
     Copy OK

Track 14

     Filename D:\Desktop\Браво - Московский бит & Стиляги из Москвы (1993)\14. Скорый поезд.wav

     Pre-gap length  0:00:02.32

     Peak level 83.9 %
     Extraction speed 1.8 X
     Track quality 99.9 %
     Test CRC 4635AA2E
     Copy CRC 4635AA2E
     Accurately ripped (confidence 2)  [510A618D]  (AR v2)
     Copy OK

Track 15

     Filename D:\Desktop\Браво - Московский бит & Стиляги из Москвы (1993)\15. Мне грустно и легко.wav

     Pre-gap length  0:00:02.27

     Peak level 78.8 %
     Extraction speed 2.0 X
     Track quality 100.0 %
     Test CRC AEF12EA0
     Copy CRC AEF12EA0
     Accurately ripped (confidence 2)  [8D9AA1EC]  (AR v2)
     Copy OK

Track 16

     Filename D:\Desktop\Браво - Московский бит & Стиляги из Москвы (1993)\16. Добрый вечер Москва.wav

     Pre-gap length  0:00:02.30

     Peak level 88.2 %
     Extraction speed 2.0 X
     Track quality 100.0 %
     Test CRC 87925376
     Copy CRC 87925376
     Accurately ripped (confidence 2)  [DB14156E]  (AR v2)
     Copy OK

Track 17

     Filename D:\Desktop\Браво - Московский бит & Стиляги из Москвы (1993)\17. Девчонка 16 лет.wav

     Pre-gap length  0:00:02.27

     Peak level 65.3 %
     Extraction speed 2.0 X
     Track quality 100.0 %
     Test CRC 38ECA5D5
     Copy CRC 38ECA5D5
     Accurately ripped (confidence 2)  [CE38AB08]  (AR v2)
     Copy OK

Track 18

     Filename D:\Desktop\Браво - Московский бит & Стиляги из Москвы (1993)\18. Я то что надо.wav

     Pre-gap length  0:00:02.28

     Peak level 73.7 %
     Extraction speed 2.1 X
     Track quality 100.0 %
     Test CRC 19FBB27B
     Copy CRC 19FBB27B
     Accurately ripped (confidence 2)  [0304CF24]  (AR v2)
     Copy OK

Track 19

     Filename D:\Desktop\Браво - Московский бит & Стиляги из Москвы (1993)\19. Держись пижон.wav

     Pre-gap length  0:00:02.27

     Peak level 68.9 %
     Extraction speed 1.9 X
     Track quality 100.0 %
     Test CRC B4A13488
     Copy CRC B4A13488
     Accurately ripped (confidence 2)  [4CD8BB2F]  (AR v2)
     Copy OK

Track 20

     Filename D:\Desktop\Браво - Московский бит & Стиляги из Москвы (1993)\20. Черный кот.wav

     Pre-gap length  0:00:02.35

     Peak level 65.1 %
     Extraction speed 2.0 X
     Track quality 100.0 %
     Test CRC 789B1C91
     Copy CRC 789B1C91
     Accurately ripped (confidence 2)  [749F8192]  (AR v2)
     Copy OK

Track 21

     Filename D:\Desktop\Браво - Московский бит & Стиляги из Москвы (1993)\21. На танцплощадке.wav

     Pre-gap length  0:00:02.28

     Peak level 65.4 %
     Extraction speed 1.8 X
     Track quality 100.0 %
     Test CRC 89E15CE5
     Copy CRC 89E15CE5
     Accurately ripped (confidence 2)  [CF9EFFE8]  (AR v2)
     Copy OK

All tracks accurately ripped

No errors occurred

End of status report

==== Log checksum 2B8A6CF19EF26CC38FB12C70580B314E973A1AFABB826DFF7DE010A519F56EEB ====

Код:

REM GENRE "Rock & Roll"
REM DATE 1993
REM DISCID 170F9115
REM COMMENT "ExactAudioCopy v1.0b3"
PERFORMER "Браво"
TITLE "Московский бит & Стиляги из Москвы"
FILE "01. Московский бит.wav" WAVE
  TRACK 01 AUDIO
    TITLE "Московский бит"
    PERFORMER "Браво"
    PREGAP 00:00:35
    INDEX 01 00:00:00
  TRACK 02 AUDIO
    TITLE "Стильный оранжевый галстук"
    PERFORMER "Браво"
    INDEX 00 03:21:08
FILE "02. Стильный оранжевый галстук.wav" WAVE
    INDEX 01 00:00:00
  TRACK 03 AUDIO
    TITLE "Лунатик"
    PERFORMER "Браво"
    INDEX 00 03:23:60
FILE "03. Лунатик.wav" WAVE
    INDEX 01 00:00:00
  TRACK 04 AUDIO
    TITLE "Космический рок-н-ролл"
    PERFORMER "Браво"
    INDEX 00 03:20:58
FILE "04. Космический рок-н-ролл.wav" WAVE
    INDEX 01 00:00:00
  TRACK 05 AUDIO
    TITLE "Пусть не кончается дождь"
    PERFORMER "Браво"
    INDEX 00 02:17:25
FILE "05. Пусть не кончается дождь.wav" WAVE
    INDEX 01 00:00:00
  TRACK 06 AUDIO
    TITLE "Пилот 12-45"
    PERFORMER "Браво"
    INDEX 00 03:22:28
FILE "06. Пилот 12-45.wav" WAVE
    INDEX 01 00:00:00
  TRACK 07 AUDIO
    TITLE "Как жаль"
    PERFORMER "Браво"
    INDEX 00 02:14:55
FILE "07. Как жаль.wav" WAVE
    INDEX 01 00:00:00
  TRACK 08 AUDIO
    TITLE "Рио"
    PERFORMER "Браво"
    INDEX 00 03:38:48
FILE "08. Рио.wav" WAVE
    INDEX 01 00:00:00
  TRACK 09 AUDIO
    TITLE "Заполярный твист"
    PERFORMER "Браво"
    INDEX 00 03:05:65
FILE "09. Заполярный твист.wav" WAVE
    INDEX 01 00:00:00
  TRACK 10 AUDIO
    TITLE "Вот и всё"
    PERFORMER "Браво"
    INDEX 00 02:31:00
FILE "10. Вот и всё.wav" WAVE
    INDEX 01 00:00:00
  TRACK 11 AUDIO
    TITLE "Король 'Оранжевое Лето'"
    PERFORMER "Браво"
    INDEX 00 04:10:55
FILE "11. Король ''Оранжевое Лето''.wav" WAVE
    INDEX 01 00:00:00
  TRACK 12 AUDIO
    TITLE "Звездный шейк"
    PERFORMER "Браво"
    INDEX 00 03:38:32
FILE "12. Звездный шейк.wav" WAVE
    INDEX 01 00:00:00
  TRACK 13 AUDIO
    TITLE "Вася"
    PERFORMER "Браво"
    INDEX 00 03:07:05
FILE "13. Вася.wav" WAVE
    INDEX 01 00:00:00
  TRACK 14 AUDIO
    TITLE "Скорый поезд"
    PERFORMER "Браво"
    INDEX 00 03:17:10
FILE "14. Скорый поезд.wav" WAVE
    INDEX 01 00:00:00
  TRACK 15 AUDIO
    TITLE "Мне грустно и легко"
    PERFORMER "Браво"
    INDEX 00 03:36:33
FILE "15. Мне грустно и легко.wav" WAVE
    INDEX 01 00:00:00
  TRACK 16 AUDIO
    TITLE "Добрый вечер Москва"
    PERFORMER "Браво"
    INDEX 00 03:19:48
FILE "16. Добрый вечер Москва.wav" WAVE
    INDEX 01 00:00:00
  TRACK 17 AUDIO
    TITLE "Девчонка 16 лет"
    PERFORMER "Браво"
    INDEX 00 02:57:00
FILE "17. Девчонка 16 лет.wav" WAVE
    INDEX 01 00:00:00
  TRACK 18 AUDIO
    TITLE "Я то что надо"
    PERFORMER "Браво"
    INDEX 00 03:16:05
FILE "18. Я то что надо.wav" WAVE
    INDEX 01 00:00:00
  TRACK 19 AUDIO
    TITLE "Держись пижон"
    PERFORMER "Браво"
    INDEX 00 03:54:15
FILE "19. Держись пижон.wav" WAVE
    INDEX 01 00:00:00
  TRACK 20 AUDIO
    TITLE "Черный кот"
    PERFORMER "Браво"
    INDEX 00 02:20:18
FILE "20. Черный кот.wav" WAVE
    INDEX 01 00:00:00
  TRACK 21 AUDIO
    TITLE "На танцплощадке"
    PERFORMER "Браво"
    INDEX 00 02:51:72
FILE "21. На танцплощадке.wav" WAVE
    INDEX 01 00:00:00

Этот торрент недоступен для скачивания без регистрации, однако доступен по публичной magnet-ссылке (источники с публичных трекеров). Перед использованием ссылки прочтите, пожалуйста Пользовательское соглашение, а также как можно дольше оставайтесь на раздаче! Для того, чтобы скачать сам торрент-файл (который видит больше источников), а также для того, чтобы поблагодарить релизера, вам необходимо зарегистрироваться. Если регистрироваться лень - вы можете также попробовать скачать релиз по нашим партнерским ссылкам ниже. Кроме того, зарегистрированным пользователям не показывается всплывающая реклама при скачивании.

[underverse.me].t81621.torrent
Трекер: Зарегистрирован   [ 23.04.2017 07:23 ]  

Статус: проверено (by Бишеп at 23.04.2017 07:25)
Поблагодарили: 1 человек
Тип торрента: публичный - доступные источники с открытых трекеров: 
Размер: 423 MB (занимает 0,09 DVDR, для записи нужно 1 болванка DVDR/RW)
 
 
Похожие темы
Форум Тема Автор Торрент Отв. Посл. сооб.
Зарубежный Hard, Progressive, Soft, Melodic, AOR, Folk, Classic Rock (Rock & Roll) Red Apple - Thus Spoke Zarathustra (2018) [MP3, 320 kbps CBR] 90ytr90
0 | 0

0 | 608

3

10.11.2018 14:36

Зарубежный Hard, Progressive, Soft, Melodic, AOR, Folk, Classic Rock (Rock & Roll) Ryan Hamilton And The Harlequin Ghosts - This Is The Sound (2019) [MP3, 320 kbps CBR] Magnat
0 | 0

0 | 658

6

01.06.2019 18:05

Зарубежный Hard, Progressive, Melodic, AOR (Lossless) (Rock & Roll, Pop-Rock) The Beatles - CD Singles Collection (1992) [FLAC (Image+.CUE), Lossless] Бишеп
1 | 0

0 | 3249

15

21.12.2012 21:45

Сборники (Rock & Roll, Rockabilly, Downtempo) VA - Balla la vita baby: Volume 2 (1997) [FLAC (Image+.CUE), Lossless] Бишеп
1 | 0

0 | 2397

12

01.11.2012 07:38

Зарубежный Rock & Roll, Rockabilly, Psychobilly (Rock & Roll, Retro) Daddy A Go Go - Monkey in The Middle (2000) [MP3, 320 kbps CBR] Jimmy
0 | 0

0 | 2901

7

25.03.2013 13:49

Зарубежный Rock & Roll, Rockabilly, Psychobilly (Rock & Roll, Beat) Gary Chester & the Beatle Beat - Yeah, Yeah, Yeah! (1964) [MP3, 320 kbps CBR] Jimmy
0 | 0

0 | 2596

8

25.03.2013 13:57

Зарубежный Rock & Roll, Rockabilly, Psychobilly (Rock & Roll, Beat) Group 64 - Group 64 (1964) [MP3, 320 kbps CBR] Jimmy
0 | 1

0 | 2396

7

25.03.2013 14:29

Зарубежный Rock & Roll, Rockabilly, Psychobilly (Rock & Roll, Rockabilly) TT Grace - Let Me in Let’s Rock’n’roll (2017) [MP3, 320 kbps CBR] Darkferse
1 | 0

0 | 1959

7

22.06.2017 03:11

Зарубежный Rock & Roll, Rockabilly, Psychobilly (Rock & Roll) Jimmy Angel And The Jason Gutierrez 3 - Love Fever (2019) [MP3, 320 kbps CBR] Magnat
0 | 0

0 | 648

4

01.06.2019 18:42

Зарубежный Rock & Roll, Rockabilly, Psychobilly (Rock & Roll, Rockabilly) The Rock'n'Roll Kamikazes - Campari & Toothpaste (2019) [MP3, 320 kbps CBR] Magnat
1 | 0

0 | 764

3

07.06.2019 17:28


Яндекс.Метрика powered by Sphinx


В Н И М А Н И Е
Сайт не распространяет и не хранит электронные версии произведений, а лишь бесплатно и без коммерческой выгоды (не требуя взамен платы,
SMS и т.д.) предоставляет доступ к создаваемому пользователями каталогу ссылок на торрент-файлы, которые содержат только списки хеш-сумм.
Убедительная просьба с жалобами обращаться напрямую к пользователю, разместившему торрент файл.

Вверх