Loading...
Error

Ледяной драйв / The Ice Road (Джонатан Хенсли) [2021 г., боевик, триллер, WEB-DL-HEVC 2160p HDR] Dub (Line) + DVO (Pazl Voice) + Original

Статистика раздачи
Размер:  12.09 GB   |    Зарегистрирован:  1 год 2 месяца   |    Скачан:  18 раз

Полного источника не было: 8 дней

Сидов:  0  |  0 KB/s  ]   Личеров:  0  |  0 KB/s  ]

* - сиды/пиры с внешних источников

   
 
Автор Сообщение

makkol Пол:Муж

30-Июн-2021 22:02

Ледяной драйв / The Ice Road


Год выпуска: 2021
Жанр: боевик, триллер
Производство: США [Code Entertainment, ShivHans Pictures, Envision Media Arts]
Режиссер: Джонатан Хенсли
В ролях: Лиам Нисон, Маркус Томас, Лоуренс Фишборн, Эмбер Мидфандер, Бенджамин Уокер, Холт Маккэллани, Мэтт МакКой, Мартин Сенсмейер, Мэтт Сэлинджер, Чад Брюс
Сюжет фильма:
Север Канады. Ненадёжный апрельский лёд, вес грузовика — 33 тонны. Проехать по замерзшей поверхности озера возможно только на определенной скорости, а остановка или ускорение означают верную смерть. Но именно такая задача стоит перед колонной грузовиков — только они могут спасти людей, оказавшихся в обрушившейся алмазной шахте. Однако ни трескающийся под колёсами лёд, ни снежная буря не сравнятся с испытаниями, которые ждут водителей впереди.

  • Мировая премьера: 25 июня 2021


Качество видео: WEB-DL 2160p

Продолжительность: 01:49:14
Формат: MKV
Видео: MPEG-H HEVC HDR10+, 3840x2160 (16:9), 23.976 fps, 14.8 Mbps
Аудио #1: русский, любительский двухголосый (Pazl Voice), AC3 2.0, 48 kHz, 192 kbps
Аудио #2: русский, дублированный (чистый звук), AC3 2.0, 48 kHz, 192 kbps
Аудио #3: английский, оригинал, E-AC3 5.1, 48 kHz, 640 kbps
Субтитры: английские отключаемые

Код:

Общее
Уникальный идентификатор : 244625841461511597296995631068441917682 (0xB809392BC5C0FF70BF7D20909F92B8F2)
Полное имя : The.Ice.Road.2021.WEB.2160p.HDR.mkv
Формат : Matroska
Версия формата : Version 4 / Version 2
Размер файла : 12,1 Гбайт
Продолжительность : 1 ч. 49 м.
Общий поток : 15,8 Мбит/сек
Дата кодирования : UTC 2021-06-30 17:27:08
Программа кодирования : mkvmerge v8.3.0 ('Over the Horizon') 64bit
Библиотека кодирования : libebml v1.3.1 + libmatroska v1.4.2

Видео
Идентификатор : 1
Формат : HEVC
Формат/Информация : High Efficiency Video Coding
Профиль формата : Main [email protected]@Main
HDR format : SMPTE ST 2094 App 4, Version 1, HDR10+ Profile B compatible
Идентификатор кодека : V_MPEGH/ISO/HEVC
Продолжительность : 1 ч. 49 м.
Битрейт : 14,8 Мбит/сек
Ширина : 3 840 пикселей
Высота : 2 160 пикселей
Соотношение сторон : 16:9
Режим частоты кадров : Постоянный
Частота кадров : 23,976 (24000/1001) кадра/сек
Цветовое пространство : YUV
Субдискретизация насыщенности : 4:2:0
Битовая глубина : 10 бит
Бит/(Пиксели*Кадры) : 0.075
Размер потока : 11,3 Гбайт (94%)
Default : Да
Forced : Нет
Цветовой диапазон : Limited
Основные цвета : BT.2020
Характеристики трансфера : PQ
Коэффициенты матрицы : BT.2020 non-constant
Mastering display color primaries : Display P3
Mastering display luminance : min: 0.0001 cd/m2, max: 1000 cd/m2
Maximum Content Light Level : 773 cd/m2
Maximum Frame-Average Light Level : 281 cd/m2

Аудио #1
Идентификатор : 2
Формат : AC-3
Формат/Информация : Audio Coding 3
Коммерческое название : Dolby Digital
Идентификатор кодека : A_AC3
Продолжительность : 1 ч. 49 м.
Вид битрейта : Постоянный
Битрейт : 192 Кбит/сек
Каналы : 2 канала
Channel layout : L R
Частота : 48,0 КГц
Частота кадров : 31,250 кадров/сек (1536 SPF)
Метод сжатия : С потерями
Размер потока : 150 Мбайт (1%)
Заголовок : DUB (Line)
Язык : Russian
Service kind : Complete Main
Default : Да
Forced : Нет

Аудио #2
Идентификатор : 3
Формат : AC-3
Формат/Информация : Audio Coding 3
Коммерческое название : Dolby Digital
Идентификатор кодека : A_AC3
Продолжительность : 1 ч. 49 м.
Вид битрейта : Постоянный
Битрейт : 192 Кбит/сек
Каналы : 2 канала
Channel layout : L R
Частота : 48,0 КГц
Частота кадров : 31,250 кадров/сек (1536 SPF)
Метод сжатия : С потерями
Размер потока : 150 Мбайт (1%)
Заголовок : DVO (Pazl Voice)
Язык : Russian
Service kind : Complete Main
Default : Нет
Forced : Нет

Аудио #3
Идентификатор : 4
Формат : E-AC-3
Формат/Информация : Enhanced AC-3
Коммерческое название : Dolby Digital Plus
Идентификатор кодека : A_EAC3
Продолжительность : 1 ч. 49 м.
Вид битрейта : Постоянный
Битрейт : 640 Кбит/сек
Каналы : 6 каналов
Channel layout : L R C LFE Ls Rs
Частота : 48,0 КГц
Частота кадров : 31,250 кадров/сек (1536 SPF)
Метод сжатия : С потерями
Размер потока : 500 Мбайт (4%)
Заголовок : Original
Язык : English
Service kind : Complete Main
Default : Нет
Forced : Нет

Текст #1
Идентификатор : 5
Формат : UTF-8
Идентификатор кодека : S_TEXT/UTF8
Идентификатор кодека/Информация : UTF-8 Plain Text
Продолжительность : 1 ч. 44 м.
Битрейт : 40 бит/сек
Count of elements : 1112
Размер потока : 31,1 Кбайт (0%)
Заголовок : Full
Язык : English
Default : Нет
Forced : Нет

Текст #2
Идентификатор : 6
Формат : UTF-8
Идентификатор кодека : S_TEXT/UTF8
Идентификатор кодека/Информация : UTF-8 Plain Text
Продолжительность : 1 ч. 45 м.
Битрейт : 48 бит/сек
Count of elements : 1360
Размер потока : 37,3 Кбайт (0%)
Заголовок : SDH
Язык : English
Default : Нет
Forced : Нет

Меню
00:00:00.000 : en:Amazon Original
00:00:06.000 : en:Studio Logo
00:00:41.000 : en:Scene 3
00:03:34.000 : en:Scene 4
00:04:58.000 : en:Scene 5
00:06:20.000 : en:Scene 6
00:11:18.000 : en:Scene 7
00:14:10.000 : en:Scene 8
00:16:57.000 : en:Scene 9
00:17:29.000 : en:Scene 10
00:20:12.000 : en:Scene 11
00:22:25.000 : en:Scene 12
00:26:07.000 : en:Scene 13
00:26:50.000 : en:Scene 14
00:28:24.000 : en:Scene 15
00:39:11.000 : en:Scene 16
00:41:32.000 : en:Scene 17
00:46:28.000 : en:Scene 18
00:48:12.000 : en:Scene 19
00:48:42.000 : en:Scene 20
00:53:38.000 : en:Scene 21
01:02:10.000 : en:Scene 22
01:04:20.000 : en:Scene 23
01:05:54.000 : en:Scene 24
01:13:06.000 : en:Scene 25
01:17:33.000 : en:Scene 26
01:23:14.000 : en:Scene 27
01:25:02.000 : en:Scene 28
01:29:07.000 : en:Scene 29
01:35:58.000 : en:Scene 30
01:38:10.000 : en:Scene 31
01:41:46.000 : en:Scene 32
01:43:36.000 : en:End Credits

Этот торрент недоступен для скачивания без регистрации, однако доступен по публичной magnet-ссылке (источники с публичных трекеров). Перед использованием ссылки прочтите, пожалуйста Пользовательское соглашение, а также как можно дольше оставайтесь на раздаче! Для того, чтобы скачать сам торрент-файл (который видит больше источников), а также для того, чтобы поблагодарить релизера, вам необходимо зарегистрироваться. Если регистрироваться лень - вы можете также попробовать скачать релиз по нашим партнерским ссылкам ниже. Кроме того, зарегистрированным пользователям не показывается всплывающая реклама при скачивании.

[underver.se].t212267.torrent
Трекер: Зарегистрирован   [ 30.06.2021 22:02 ]  
Статус: T временная (by makkol at 30.06.2021 22:02)
Поблагодарили: пока никто не поблагодарил...
Тип торрента: публичный - доступные источники с открытых трекеров: 
Размер: 12.09 GB (занимает 2.76 DVDR, для записи нужно 3 болванки DVDR/RW)
 
 

Яндекс.Метрика powered by Sphinx


В Н И М А Н И Е
Сайт не распространяет и не хранит электронные версии произведений, а лишь бесплатно и без коммерческой выгоды (не требуя взамен платы,
SMS и т.д.) предоставляет доступ к создаваемому пользователями каталогу ссылок на торрент-файлы, которые содержат только списки хеш-сумм.
Убедительная просьба с жалобами обращаться напрямую к пользователю, разместившему торрент файл.

Вверх