Loading...
Error

Гнев человеческий / Wrath of Man (Гай Ричи) [2021, Боевик, триллер, BDRip 720p] Dub (iTunes) + AVO (Пучков) + Original + Sub (Rus/Eng)

Статистика раздачи
Размер:  6 GB   |    Зарегистрирован:  1 год 2 месяца   |    Скачан:  26 раз
Сидов:  1  |  0 KB/s  ]   Личеров:  0  |  0 KB/s  ]

* - сиды/пиры с внешних источников

   
 
Автор Сообщение

Konin Пол:Муж

14-Июл-2021 09:19

Гнев человеческий / Wrath of Man

Год выхода: 2021
Страна: Великобритания, США
Студия: CAA Media Finance, Flic Films UK, Metro-Goldwyn-Mayer (MGM), Miramax Films, Toff Guy Films
Жанр: Боевик, триллер
Продолжительность: 01:58:56
Перевод #1: Профессиональный (полное дублирование) | iTunes
Перевод #2: Авторский (одноголосый, закадровый) | Пучков a.k.a Goblin
Режиссер:
Гай Ричи
В ролях:
Джейсон Стэйтем, Алекс Фернс, Холт МакКэллани, Скотт Иствуд, Ниам Алгар, Джош Хартнетт, Джеффри Донован, Лас Алонсо, Деобиа Опарей, Рокки Уильямс, Джейсон Вонг, Остин Ричард Пост, Рауль Кастилло
О фильме:
Загадочный и холодный на вид Эйч (Джейсон Стэйтем), преследуемый жаждой справедливости, внедряется в инкассаторскую компанию. Его цель — отыскать соучастников серии громких ограблений в Лос-Анджелесе. В этой запутанной и опасной игре все преследуют свои цели и каждый оказывается под подозрением.
«Гнев человеческий» — криминальный триллер Гая Ричи, ремейк французской ленты 2004 года «Инкассатор».

Качество: BDRip 720p
Формат: MKV
Видео: MPEG-4 AVC, 1280x536, 6000 Кbit/s, 23.976 fps
Аудио #01: 48 kHz, AC3, 5.1, 384 Kbps | Дублированный | iTunes | RUS |
Аудио #02: 48 kHz, AC3, 2.0, 192 Kbps | Авторский | Пучков a.k.a Goblin | RUS |
Аудио #03: 48 kHz, AC3, 5.1, 640 Kbps | Оригинал | ENG |
Субтитры: Русские (Forced, 2 x full [iTunes, Enigma]), английские
General
Unique ID : 166491343037657612075962454130466367603 (0x7D4110F94849E207AFC042AA68DA2873)
Complete name : F:VideoWrath.of.Man.2021.BDRip.720p.seleZen.mkv
Format : Matroska
Format version : Version 4
File size : 6.00 GiB
Duration : 1 h 58 min
Overall bit rate : 7 217 kb/s
Movie name : Wrath Of Man 2021 from seleZen
Encoded date : UTC 2021-07-14 05:24:01
Writing application : mkvmerge v55.0.0 ('Waiting For Space') 64-bit
Writing library : libebml v1.4.2 + libmatroska v1.6.4
Video
ID : 1
Format : AVC
Format/Info : Advanced Video Codec
Format profile : [email protected]
Format settings : CABAC / 12 Ref Frames
Format settings, CABAC : Yes
Format settings, Reference : 12 frames
Codec ID : V_MPEG4/ISO/AVC
Duration : 1 h 58 min
Bit rate : 6 000 kb/s
Width : 1 280 pixels
Height : 536 pixels
Display aspect ratio : 2.40:1
Frame rate mode : Constant
Frame rate : 23.976 (24000/1001) FPS
Color space : YUV
Chroma subsampling : 4:2:0
Bit depth : 8 bits
Scan type : Progressive
Bits/(Pixel*Frame) : 0.365
Stream size : 4.98 GiB (83%)
Writing library : x264 core 146 -from seleZen
Encoding settings : cabac=1 / ref=12 / deblock=1:-2:-2 / analyse=0x3:0x133 / me=umh / subme=11 / psy=1 / psy_rd=1.04:0.05 / mixed_ref=1 / me_range=32 / chroma_me=1 / trellis=2 / 8x8dct=1 / cqm=0 / deadzone=21,11 / fast_pskip=0 / chroma_qp_offset=-3 / threads=48 / lookahead_threads=4 / sliced_threads=0 / nr=0 / decimate=0 / interlaced=0 / bluray_compat=0 / constrained_intra=0 / bframes=10 / b_pyramid=2 / b_adapt=2 / b_bias=0 / direct=3 / weightb=1 / open_gop=0 / weightp=2 / keyint=240 / keyint_min=23 / scenecut=40 / intra_refresh=0 / rc_lookahead=50 / rc=2pass / mbtree=0 / bitrate=6000 / ratetol=1.0 / qcomp=0.60 / qpmin=0 / qpmax=51 / qpstep=4 / cplxblur=20.0 / qblur=0.5 / vbv_maxrate=50000 / vbv_bufsize=62500 / nal_hrd=none / filler=0 / ip_ratio=1.40 / pb_ratio=1.30 / aq=3:0.80
Language : English
Default : Yes
Forced : No
Audio #1
ID : 2
Format : AC-3
Format/Info : Audio Coding 3
Commercial name : Dolby Digital
Codec ID : A_AC3
Duration : 1 h 58 min
Bit rate mode : Constant
Bit rate : 384 kb/s
Channel(s) : 6 channels
Channel layout : L R C LFE Ls Rs
Sampling rate : 48.0 kHz
Frame rate : 31.250 FPS (1536 SPF)
Compression mode : Lossy
Stream size : 327 MiB (5%)
Title : Dub [iTunes]
Language : Russian
Service kind : Complete Main
Default : Yes
Forced : Yes
Audio #2
ID : 3
Format : AC-3
Format/Info : Audio Coding 3
Commercial name : Dolby Digital
Codec ID : A_AC3
Duration : 1 h 58 min
Bit rate mode : Constant
Bit rate : 192 kb/s
Channel(s) : 2 channels
Channel layout : L R
Sampling rate : 48.0 kHz
Frame rate : 31.250 FPS (1536 SPF)
Compression mode : Lossy
Stream size : 163 MiB (3%)
Title : AVO [Puchkov a.k.a Goblin]
Language : Russian
Service kind : Complete Main
Default : No
Forced : No
Audio #3
ID : 4
Format : AC-3
Format/Info : Audio Coding 3
Commercial name : Dolby Digital
Codec ID : A_AC3
Duration : 1 h 58 min
Bit rate mode : Constant
Bit rate : 640 kb/s
Channel(s) : 6 channels
Channel layout : L R C LFE Ls Rs
Sampling rate : 48.0 kHz
Frame rate : 31.250 FPS (1536 SPF)
Compression mode : Lossy
Stream size : 544 MiB (9%)
Title : Original
Language : English
Service kind : Complete Main
Default : No
Forced : No
Text #1
ID : 5
Format : UTF-8
Codec ID : S_TEXT/UTF8
Codec ID/Info : UTF-8 Plain Text
Duration : 1 h 11 min
Bit rate : 0 b/s
Count of elements : 11
Stream size : 463 Bytes (0%)
Title : Forced
Language : Russian
Default : Yes
Forced : Yes
Text #2
ID : 6
Format : UTF-8
Codec ID : S_TEXT/UTF8
Codec ID/Info : UTF-8 Plain Text
Duration : 1 h 57 min
Bit rate : 91 b/s
Count of elements : 1577
Stream size : 78.8 KiB (0%)
Title : Full [iTunes]
Language : Russian
Default : No
Forced : No
Text #3
ID : 7
Format : UTF-8
Codec ID : S_TEXT/UTF8
Codec ID/Info : UTF-8 Plain Text
Duration : 1 h 52 min
Bit rate : 96 b/s
Count of elements : 1771
Stream size : 79.1 KiB (0%)
Title : Full [Enigma]
Language : Russian
Default : No
Forced : No
Text #4
ID : 8
Format : UTF-8
Codec ID : S_TEXT/UTF8
Codec ID/Info : UTF-8 Plain Text
Duration : 1 h 50 min
Bit rate : 63 b/s
Count of elements : 1792
Stream size : 51.5 KiB (0%)
Title : Full
Language : English
Default : No
Forced : No
Text #5
ID : 9
Format : UTF-8
Codec ID : S_TEXT/UTF8
Codec ID/Info : UTF-8 Plain Text
Duration : 1 h 50 min
Bit rate : 70 b/s
Count of elements : 1990
Stream size : 56.8 KiB (0%)
Title : SDH
Language : English
Default : No
Forced : No
Menu
00:00:00.000 : :Chapter 1
00:05:54.687 : :Chapter 2
00:13:08.245 : :Chapter 3
00:19:51.648 : :Chapter 4
00:29:30.560 : :Chapter 5
00:38:33.352 : :Chapter 6
00:47:33.809 : :Chapter 7
00:55:35.123 : :Chapter 8
01:02:41.424 : :Chapter 9
01:10:36.232 : :Chapter 10
01:19:03.655 : :Chapter 11
01:25:57.944 : :Chapter 12
01:34:15.483 : :Chapter 13
01:44:05.113 : :Chapter 14
01:53:03.610 : :Chapter 15
Релиз:

Этот торрент недоступен для скачивания без регистрации, однако доступен по публичной magnet-ссылке (источники с публичных трекеров). Перед использованием ссылки прочтите, пожалуйста Пользовательское соглашение, а также как можно дольше оставайтесь на раздаче! Для того, чтобы скачать сам торрент-файл (который видит больше источников), а также для того, чтобы поблагодарить релизера, вам необходимо зарегистрироваться. Если регистрироваться лень - вы можете также попробовать скачать релиз по нашим партнерским ссылкам ниже. Кроме того, зарегистрированным пользователям не показывается всплывающая реклама при скачивании.

[underver.se].t213996.torrent
Трекер: Зарегистрирован   [ 14.07.2021 09:19 ]  
Статус: проверено (by Robbertta at 14.07.2021 10:58)
Поблагодарили: 1 человек
Тип торрента: публичный - доступные источники с открытых трекеров: 
Размер: 6 GB (занимает 1.37 DVDR, для записи нужно 2 болванки DVDR/RW)
 
 

Яндекс.Метрика powered by Sphinx


В Н И М А Н И Е
Сайт не распространяет и не хранит электронные версии произведений, а лишь бесплатно и без коммерческой выгоды (не требуя взамен платы,
SMS и т.д.) предоставляет доступ к создаваемому пользователями каталогу ссылок на торрент-файлы, которые содержат только списки хеш-сумм.
Убедительная просьба с жалобами обращаться напрямую к пользователю, разместившему торрент файл.

Вверх