Loading...
Error

Ледяной драйв / The Ice Road (Джонатан Хенсли) [2021 г., боевик, триллер, WEB-DL 1080p] Dub (iTunes) + Original (Eng) + Sub (Rus, Eng)

Статистика раздачи
Размер:  5.33 GB   |    Зарегистрирован:  1 год 2 месяца   |    Скачан:  33 раза

Полного источника не было: 5 месяцев 17 дней

Сидов:  0  |  0 KB/s  ]   Личеров:  0  |  0 KB/s  ]

* - сиды/пиры с внешних источников

   
 
Автор Сообщение

eXtatik Пол:Муж

16-Июл-2021 09:03

Ледяной драйв / The Ice Road


Страна: США / Aperture Media Partners, Code Entertainment, Envision Media Arts, Ice Road Productions, Manitoba Film & Music, ShivHans Pictures, Solution Entertainment Group
Год выпуска: 2021
Жанр: боевик, триллер
Продолжительность: 01:49:15
Озвучивание: профессиональное (полное дублирование) [iTunes]
Режиссёр: Джонатан Хенсли

В ролях:
    Лиам Нисон, Лоренс Фишбёрн, Бенджамин Уокер, Эмбер Мидфандер, Маркус Томас, Холт Маккэллани, Мартин Сенсмейер, Мэтт МакКой, Мэтт Сэлинджер, Чад Брюс


Сюжет фильма:
    Север Канады. Ненадёжный апрельский лёд, вес грузовика — 33 тонны. Проехать по замерзшей поверхности озера возможно только на определенной скорости, а остановка или ускорение означают верную смерть. Но именно такая задача стоит перед колонной грузовиков — только они могут спасти людей, оказавшихся в обрушившейся алмазной шахте. Однако ни трескающийся под колёсами лёд, ни снежная буря не сравнятся с испытаниями, которые ждут водителей впереди.

             
Качество видео: WEB-DL 1080p | AMAZON Version
Формат: MKV
Видео: AVC, 1920x1080 (16:9), 5963 kbps, 23.976 (24000/1001) fps, 0.120 bit/pixel
Аудио #1: AC3, 384 kbps, 6 ch, 48 kHz, русский, профессиональный дубляж (iTunes)
Аудио #2: E-AC3, 640 kbps, 6 ch, 48 kHz, оригинал, английский
Субтитры: Russian (forced (iTunes)), Russian (full (iTunes)), English (English), English (EnglishSDH)
Навигация по главам: есть (33)

Rip by ELEKTRI4KA
Complete name                            : Ledyanoy.drayv.2021.WEB-DL.1080p.ELEKTRI4KA.UNIONGANG.mkv 
Format : Matroska
Format version : Version 4
File size : 5.33 GiB
Duration : 1 h 49 min
Overall bit rate : 6 989 kb/s
Movie name : Ledyanoy.drayv.2021.WEB-DL.1080p.ELEKTRI4KA.UNIONGANG.
Encoded date : UTC 2021-07-15 20:23:38
Writing application : mkvmerge v8.3.0 ('Over the Horizon') 32bit
Writing library : libebml v1.3.1 + libmatroska v1.4.2

Video
ID : 1
Format : AVC
Format/Info : Advanced Video Codec
Format profile : [email protected]
Format settings : CABAC / 4 Ref Frames
Format settings, CABAC : Yes
Format settings, Reference frames : 4 frames
Codec ID : V_MPEG4/ISO/AVC
Duration : 1 h 49 min
Bit rate mode : Constant
Bit rate : 5 963 kb/s
Nominal bit rate : 10 000 kb/s
Width : 1 920 pixels
Height : 1 080 pixels
Display aspect ratio : 16:9
Frame rate mode : Constant
Frame rate : 23.976 (24000/1001) FPS
Color space : YUV
Chroma subsampling : 4:2:0
Bit depth : 8 bits
Scan type : Progressive
Bits/(Pixel*Frame) : 0.120
Stream size : 4.55 GiB (85%)
Language : English
Default : Yes
Forced : No
Color range : Limited
Color primaries : BT.709
Transfer characteristics : BT.709
Matrix coefficients : BT.709

Audio #1
ID : 2
Format : AC-3
Format/Info : Audio Coding 3
Commercial name : Dolby Digital
Codec ID : A_AC3
Duration : 1 h 49 min
Bit rate mode : Constant
Bit rate : 384 kb/s
Channel(s) : 6 channels
Channel layout : L R C LFE Ls Rs
Sampling rate : 48.0 kHz
Frame rate : 31.250 FPS (1536 SPF)
Compression mode : Lossy
Stream size : 300 MiB (5%)
Title : Dub (iTunes)
Language : Russian
Service kind : Complete Main
Default : Yes
Forced : Yes

Audio #2
ID : 3
Format : E-AC-3
Format/Info : Enhanced AC-3
Commercial name : Dolby Digital Plus
Codec ID : A_EAC3
Duration : 1 h 49 min
Bit rate mode : Constant
Bit rate : 640 kb/s
Channel(s) : 6 channels
Channel layout : L R C LFE Ls Rs
Sampling rate : 48.0 kHz
Frame rate : 31.250 FPS (1536 SPF)
Compression mode : Lossy
Stream size : 500 MiB (9%)
Title : Original
Language : English
Service kind : Complete Main
Default : No
Forced : No

Text #1
ID : 4
Format : UTF-8
Codec ID : S_TEXT/UTF8
Codec ID/Info : UTF-8 Plain Text
Duration : 1 h 41 min
Bit rate : 2 b/s
Count of elements : 20
Stream size : 1.72 KiB (0%)
Title : Forced (iTunes)
Language : Russian
Default : Yes
Forced : Yes

Text #2
ID : 5
Format : UTF-8
Codec ID : S_TEXT/UTF8
Codec ID/Info : UTF-8 Plain Text
Duration : 1 h 40 min
Bit rate : 68 b/s
Count of elements : 856
Stream size : 50.1 KiB (0%)
Title : Full (iTunes)
Language : Russian
Default : No
Forced : No

Text #3
ID : 6
Format : UTF-8
Codec ID : S_TEXT/UTF8
Codec ID/Info : UTF-8 Plain Text
Duration : 1 h 44 min
Bit rate : 40 b/s
Count of elements : 1112
Stream size : 31.1 KiB (0%)
Title : English
Language : English
Default : No
Forced : No

Text #4
ID : 7
Format : UTF-8
Codec ID : S_TEXT/UTF8
Codec ID/Info : UTF-8 Plain Text
Duration : 1 h 45 min
Bit rate : 48 b/s
Count of elements : 1360
Stream size : 37.3 KiB (0%)
Title : English SDH
Language : English
Default : No
Forced : No

Menu
00:00:00.000 : en:Amazon Original
00:00:06.000 : en:Studio Logo
00:00:41.000 : en:Scene 3
00:03:34.000 : en:Scene 4
00:04:58.000 : en:Scene 5
00:06:20.000 : en:Scene 6
00:11:18.000 : en:Scene 7
00:14:10.000 : en:Scene 8
00:16:57.000 : en:Scene 9
00:17:29.000 : en:Scene 10
00:20:12.000 : en:Scene 11
00:22:25.000 : en:Scene 12
00:26:07.000 : en:Scene 13
00:26:50.000 : en:Scene 14
00:28:24.000 : en:Scene 15
00:39:11.000 : en:Scene 16
00:41:32.000 : en:Scene 17
00:46:28.000 : en:Scene 18
00:48:12.000 : en:Scene 19
00:48:42.000 : en:Scene 20
00:53:38.000 : en:Scene 21
01:02:10.000 : en:Scene 22
01:04:20.000 : en:Scene 23
01:05:54.000 : en:Scene 24
01:13:06.000 : en:Scene 25
01:17:33.000 : en:Scene 26
01:23:14.000 : en:Scene 27
01:25:02.000 : en:Scene 28
01:29:07.000 : en:Scene 29
01:35:58.000 : en:Scene 30
01:38:10.000 : en:Scene 31
01:41:46.000 : en:Scene 32
01:43:36.000 : en:End Credits
pic pic pic pic

Этот торрент недоступен для скачивания без регистрации, однако доступен по публичной magnet-ссылке (источники с публичных трекеров). Перед использованием ссылки прочтите, пожалуйста Пользовательское соглашение, а также как можно дольше оставайтесь на раздаче! Для того, чтобы скачать сам торрент-файл (который видит больше источников), а также для того, чтобы поблагодарить релизера, вам необходимо зарегистрироваться. Если регистрироваться лень - вы можете также попробовать скачать релиз по нашим партнерским ссылкам ниже. Кроме того, зарегистрированным пользователям не показывается всплывающая реклама при скачивании.

[underver.se].t214193.torrent
Трекер: Зарегистрирован   [ 16.07.2021 09:03 ]  
Статус: проверено (by eXtatik at 16.07.2021 09:03)
Поблагодарили: 1 человек
Тип торрента: публичный - доступные источники с открытых трекеров: 
Размер: 5.33 GB (занимает 1.22 DVDR, для записи нужно 2 болванки DVDR/RW)
 
 

Яндекс.Метрика powered by Sphinx


В Н И М А Н И Е
Сайт не распространяет и не хранит электронные версии произведений, а лишь бесплатно и без коммерческой выгоды (не требуя взамен платы,
SMS и т.д.) предоставляет доступ к создаваемому пользователями каталогу ссылок на торрент-файлы, которые содержат только списки хеш-сумм.
Убедительная просьба с жалобами обращаться напрямую к пользователю, разместившему торрент файл.

Вверх